[ Сегодня идет свободное скачивание без начисления Download ]


Статистика раздачи
Нет
 
   
 
Top  
 
 
Пропащие ребята 3: Жажда / Lost Boys: The Thirst-Год выпуска: 2010
Страна: США, ЮАР
Слоган: «The Frog brothers are back for blood»
Жанр: ужасы, триллер
Продолжительность: 01:21:23
Перевод: Профессиональный (многоголосый, закадровый) Лицензия
Русские субтитры: есть
Режиссер: Дарио Ди Пиана / Dario Piana
Сценарий: Evan Charnov, Ганс Родионофф / Hans Rodionoff
Продюсер: Нина Хейнс / Nina Heyns, Брайан С. Секстон / Bryan S. Sexton, Дэвид Викт / David Wicht
Оператор: Stefano Morcaldo
Композитор: Элиа Кмирал / Elia Cmiral
В ролях: Кори Фельдман (Edgar Frog), Танита Феникс (Gwen Lieber), Джемисон Ньюлэндер (Alan Frog), Шон Майкл (Ira Pinkus), Кэйси Б. Долан (Zoe), Хосе Ваз (Claus), Мэттью Робертс (Blake), Seb Castang (DJ X), Felix Mosse (Peter), Porteus Xandau Steenkamp (Johnny Trash)-Мировая премьера: 5 октября 2010
Релиз на DVD: 26 октября 2010, «Юниверсал Пикчерс Рус»-Описание: Пока пропащие парни и девушки из Сан-Казадора готовятся к празднику Кровавой Луны, вампир-старейшина решает создать из этой толпы разнузданных бездельников армию бессмертных. Существует лишь одно препятствие на пути к полному порабощению человечества - знаменитые борцы с вампирами Братья Фрог. Вооруженные двуствольными гранатометами со святой водой и мощными арбалетами Эдгар (Кори Фельдман) и Алан Фрог (Джемисон Ньюлэндер) намерены надрать зад ненавистным кровососам в этом динамичном и увлекательном продолжении знаменитых Пропащих ребят.-Рейтинг
6.629 (35) kinopoisk.ru: |IMDB 5,1/10 (2 230)
MPAA: R - Лицам до 17 лет обязательно присутствие взрослого-семпл |-Качество: BDRip
Формат: Matroska
Источник видео: Lost.Boys.The Thirst.2010.BDRip.720p.uniongang
Видео: AVC; 1280x528 (2.40:1); 6178 Kbps; 23,976 fps; 0,371 bpp
Аудио №1: Russian; AC3; 384 Kbps; CBR; 6 ch, 48.0 KHz
Аудио №2: English; DTS; 1509 Kbps; CBR; 6 ch; 24 bit, 48.0 KHz
Субтитры: Russian-

NFO

[size=12]Complete name : Propashie.rebyata.3.2010.BDRip.720p.mkv
      Format : Matroska
      File size : 4.59 GiB
      Duration : 1h 21mn
      Overall bit rate : 8 073 Kbps
      Encoded date : UTC 2010-10-24 22:09:51
      Writing application : mkvmerge v3.3.0 ('Language') built on Mar 24 2010 14:59:24
      Writing library : libebml v0.8.0 + libmatroska v0.9.0
   Video #1
      ID : 1
      Format : AVC
      Format/Info : Advanced Video Codec
      Format profile : [email protected]
      Format settings, CABAC : Yes
      Format settings, ReFrames : 5 frames
      Muxing mode : Container [email protected]
      Codec ID : V_MPEG4/ISO/AVC
      Duration : 1h 21mn
      Bit rate : 6 018 Kbps
      Nominal bit rate : 6 178 Kbps
      Width : 1 280 pixels
      Height : 528 pixels
      Display aspect ratio : 2.40:1
      Frame rate : 23.976 fps
      Resolution : 8 bits
      Colorimetry : 4:2:0
      Scan type : Progressive
      Bits/(Pixel*Frame) : 0.371
      Stream size : 3.42 GiB (74%)
      Writing library : x264 core 107 r1745 4785e8e
      Encoding settings : cabac=1 / ref=5 / deblock=1:0:0 / analyse=0x3:0x133 / me=umh / subme=8 / psy=1 / psy_rd=1.00:0.00 / mixed_ref=1 / me_range=16 / chroma_me=1 / trellis=1 / 8x8dct=1 / cqm=0 / deadzone=21,11 / fast_pskip=0 / chroma_qp_offset=-2 / threads=18 / sliced_threads=0 / nr=0 / decimate=1 / interlaced=0 / constrained_intra=0 / bframes=3 / b_pyramid=2 / b_adapt=1 / b_bias=0 / direct=1 / weightb=1 / open_gop=0 / weightp=2 / keyint=250 / keyint_min=23 / scenecut=40 / intra_refresh=0 / rc_lookahead=40 / rc=2pass / mbtree=1 / bitrate=6178 / ratetol=1.0 / qcomp=0.60 / qpmin=10 / qpmax=51 / qpstep=4 / cplxblur=20.0 / qblur=0.5 / ip_ratio=1.40 / aq=1:1.00
      Language : English
   Audio #2
      ID : 2
      Format : AC-3
      Format/Info : Audio Coding 3
      Codec ID : A_AC3
      Duration : 1h 21mn
      Bit rate mode : Constant
      Bit rate : 384 Kbps
      Channel(s) : 6 channels
      Channel positions : Front: L C R, Surround: L R, LFE
      Sampling rate : 48.0 KHz
      Stream size : 224 MiB (5%)
      Title : R5
      Language : Russian
   Audio #3
      ID : 3
      Format : DTS
      Format/Info : Digital Theater Systems
      Codec ID : A_DTS
      Duration : 1h 21mn
      Bit rate mode : Constant
      Bit rate : 1 510 Kbps
      Channel(s) : 6 channels
      Channel positions : Front: L C R, Surround: L R, LFE
      Sampling rate : 48.0 KHz
      Resolution : 24 bits
      Stream size : 879 MiB (19%)
      Title : Orig
      Language : English
   Text #4
      ID : 4
      Format : UTF-8
      Codec ID : S_TEXT/UTF8
      Codec ID/Info : UTF-8 Plain Text
      Title : R5
      Language : Russian[/size]

[Цитировать]



Показать сообщения:    

Текущее время: 06-Дек 17:08

Часовой пояс: UTC + 3


Вы не можете начинать темы
Вы не можете отвечать на сообщения
Вы не можете редактировать свои сообщения
Вы не можете удалять свои сообщения
Вы не можете голосовать в опросах
Вы не можете прикреплять файлы к сообщениям
Вы не можете скачивать файлы

!ВНИМАНИЕ!
Сайт не предоставляет электронные версии произведений, а занимается лишь коллекционированием и каталогизацией ссылок, присылаемых и публикуемых на форуме нашими читателями. Если вы являетесь правообладателем какого-либо представленного материала и не желаете, чтобы ссылка на него находилась в нашем каталоге, свяжитесь с нами, и мы незамедлительно удалим ее. Файлы для обмена на трекере предоставлены пользователями сайта, и администрация не несет ответственности за их содержание. Просьба не заливать файлы, защищенные авторскими правами, а также файлы нелегального содержания!