[ Сегодня идет свободное скачивание без начисления Download ]


Статистика раздачи
Нет
 
   
 
Top  
 
 
-Гринго / El Gringo (2012) BDRip- Русское название: Гринго
Оригинальное название: El Gringo
Производство: США / After Dark Films, Autonomous Films, Signature Pictures
Год выпуска: 2012
Жанр: Боевик, Драма
Описание фильма:
Сюжет фильма вращается вокруг американца, который пересекает мексиканскую границу с пулевым ранением руки и 2,3 млн. наличных с целью отправиться в Акапулько и отдохнуть на пляже. Но вскоре он понимает, что это легче сказать, чем сделать.
Режиссер: Эдуардо Родригез
Актеры: Скотт Эдкинс, Кристиан Слэйтер, Ивет Йэтс, Израэль Ислас, Erando Gonz?lez
Продолжительность: 01:38:46
Перевод: Профессиональный (многоголосный) [НТВ+]
Язык субтитров: Aнглийский
Вид субтитров: Вшитые отключаемые

Дата мировой премьеры: 11 мая 2012
Видеокодек: MPEG-4 AVC/H.264
Битрейт видео: ~5354 Kbit/s
Размер кадра: 1280 x 560
Качество видео: BDRip 720p
Aудио #1: AC3, 48,0 КHz, 5.1, 384 Kbit/s - Русский
Aудио #2: DTS, 48,0 КHz, 5.1, 1510 Kbit/s - Aнглийский
Дополнительно: Сохранены оригинальные чаптеры как на Blu-ray

MediaInfo

Общее
Уникальный идентификатор : 206078144723551270856063956845763804309 (0x9B0934FCAFAAA0D58A7A36FAD2D4BC95)
Полное имя : D:\Торренты\Гринго.2012.BDRip.720p.mkv
Формат : Matroska
Размер файла : 5,10 Гбайт
Продолжительность : 1 ч. 38 м.
Общий поток : 7395 Кбит/сек
Дата кодирования : UTC 2013-05-12 23:47:04
Программа кодирования : mkvmerge v6.2.0 ('Promised Land')
Библиотека кодирования : libebml v1.3.0 + libmatroska v1.4.0
Видео
Идентификатор : 1
Формат : AVC
Формат/Информация : Advanced Video Codec
Профиль формата : High@L4.1
Параметр CABAC формата : Да
Параметр ReFrames формата : 16 кадров
Идентификатор кодека : V_MPEG4/ISO/AVC
Продолжительность : 1 ч. 38 м.
Битрейт : 5354 Кбит/сек
Ширина : 1280 пикс.
Высота : 560 пикс.
Соотношение сторон : 2,25:1
Частота кадров : 23,976 кадр/сек
Цветовое пространство : YUV
Подвыборка цветности : 4:2:0
Битовая глубина : 8 бит
Тип развёртки : Прогрессивная
Бит/(Пиксели*Кадры) : 0.312
Размер потока : 3,69 Гбайт (72%)
Заголовок : El Gringo 2012
Язык : English
Аудио #1
Идентификатор : 2
Формат : AC-3
Формат/Информация : Audio Coding 3
Расширение режима : CM (complete main)
Идентификатор кодека : A_AC3
Продолжительность : 1 ч. 38 м.
Вид битрейта : Постоянный
Битрейт : 384 Кбит/сек
Каналы : 6 каналов
Расположение каналов : Front: L C R, Side: L R, LFE
Частота : 48,0 КГц
Битовая глубина : 16 бит
Метод сжатия : С потерями
Размер потока : 271 Мбайт (5%)
Заголовок : НТВ+
Язык : Russian
Аудио #2
Идентификатор : 3
Формат : DTS
Формат/Информация : Digital Theater Systems
Идентификатор кодека : A_DTS
Продолжительность : 1 ч. 38 м.
Вид битрейта : Постоянный
Битрейт : 1510 Кбит/сек
Каналы : 6 каналов
Расположение каналов : Front: L C R, Side: L R, LFE
Частота : 48,0 КГц
Битовая глубина : 24 бит
Метод сжатия : С потерями
Размер потока : 1,04 Гбайт (20%)
Заголовок : Оригинал
Язык : English
Текст
Идентификатор : 4
Формат : UTF-8
Идентификатор кодека : S_TEXT/UTF8
Идентификатор кодека/Информация : UTF-8 Plain Text
Заголовок : Полные
Язык : English
Меню
00:00:00.000 : en:00:00:00.000
00:09:36.910 : en:00:09:36.910
00:17:57.076 : en:00:17:57.076
00:22:32.309 : en:00:22:32.309
00:33:04.274 : en:00:33:04.274
00:41:28.319 : en:00:41:28.319
00:48:31.450 : en:00:48:31.450
00:55:57.354 : en:00:55:57.354
01:03:43.028 : en:01:03:43.028
01:13:29.864 : en:01:13:29.864
01:23:20.704 : en:01:23:20.704
01:33:14.422 : en:01:33:14.422
Скриншоты:
Время раздачи: 24/7 по возможности

[Цитировать]



Показать сообщения:    

Текущее время: 10-Дек 13:51

Часовой пояс: UTC + 3


Вы не можете начинать темы
Вы не можете отвечать на сообщения
Вы не можете редактировать свои сообщения
Вы не можете удалять свои сообщения
Вы не можете голосовать в опросах
Вы не можете прикреплять файлы к сообщениям
Вы не можете скачивать файлы

!ВНИМАНИЕ!
Сайт не предоставляет электронные версии произведений, а занимается лишь коллекционированием и каталогизацией ссылок, присылаемых и публикуемых на форуме нашими читателями. Если вы являетесь правообладателем какого-либо представленного материала и не желаете, чтобы ссылка на него находилась в нашем каталоге, свяжитесь с нами, и мы незамедлительно удалим ее. Файлы для обмена на трекере предоставлены пользователями сайта, и администрация не несет ответственности за их содержание. Просьба не заливать файлы, защищенные авторскими правами, а также файлы нелегального содержания!