[ Сегодня идет свободное скачивание без начисления Download ]


Статистика раздачи
Нет
 
   
 
Top  
 
 
-Тьма / Darkness (2002) HDRip-«Вы больше не боитесь темноты? Напрасно...»- Русское название: Тьма
Оригинальное название: Darkness
Год выпуска: 2002
Производство: США, Испания / Castelao Producciones, Dimension Films, Filmax International
Жанр: Ужасы, Триллер, Детектив-Описание фильма:
Вернувшись в Испанию после долгого пребывания в Америке, семья юной Регины поселяется в старом величественном особняке, пустовавшем почти 40 лет. Вскоре ее младшему брату начинает казаться, что в холодных стенах их нового дома присутствует кто-то невидимый и страшный. Пугающие, необъяснимые события и странное поведение отца семейства подсказывают детям, что их мрачная обитель хранит некую зловещую тайну. Близится солнечное затмение. Поставит ли тьма точку в их бесконечных кошмарах или навсегда погрузит их в бездну всепоглощающего ужаса?...-Режиссер: Хайме Балагуэро
Продюсер: Хулио Фернандес, Брайан Юзна, Карлос Фернандес
Актеры: Анна Пэкуин, Лена Улин, Айэйн Глен, Джанкарло Джаннини, Феле Мартинес, Стефан Энквист, Ферми Рейксач, Франсеск Пахес, Крэйг Стивенсон, Паула Фернандез, Джемма Лозаньо, Ксавьер Айепус, Джозеф Робертс, Марк Феррандо, Джош Гаета, Мэтью Диксон-Продолжительность: 01:42:31
Перевод: Дублированный
Язык субтитров: Русские
Вид субтитров: Вшитые отключаемые- -Дата мировой премьеры: 3 октября 2002
Дата российской премьеры: 13 февраля 2003, «Пирамида»
Дата выхода DVD релиза: 23 октября 2008, «CP-Digital»-Видеокодек: MPEG-4 AVC/H.264
Битрейт видео: ~2147 Кбит/с
Размер кадра: 1024x422
Качество видео: HDRip-AVC
Аудио#1: Русский (AC3, 6 ch, 448 Кбит/с) Дублированный (R5)
Аудио#2: Английский (AC3, 6 ch, 448 Кбит/с)

MediaInfo

Общее
Уникальный идентификатор : 241642643896405567165118091910521782473 (0xB5CAAE2CDDA9E42283DCD8A0F65380C9)
Полное имя : D:\Торрент раздача\Tjma.2002.x264.HDRip.mkv
Формат : Matroska
Версия формата : Version 1
Размер файла : 2,18 Гбайт
Продолжительность : 1 ч. 42 м.
Общий поток : 3044 Кбит/сек
Название фильма : Darkness (2002)
Дата кодирования : UTC 2013-05-07 21:16:45
Программа кодирования : mkvmerge v2.1.0 ('Another Place To Fall') built on Aug 19 2007 13:40:07
Библиотека кодирования : libebml v0.7.7 + libmatroska v0.8.1
Видео
Идентификатор : 1
Формат : AVC
Формат/Информация : Advanced Video Codec
Профиль формата : High@L4.1
Параметр CABAC формата : Да
Параметр ReFrames формата : 7 кадров
Идентификатор кодека : V_MPEG4/ISO/AVC
Продолжительность : 1 ч. 42 м.
Битрейт : 2147 Кбит/сек
Ширина : 1024 пикселя
Высота : 422 пикселя
Соотношение сторон : 2,40:1
Режим частоты кадров : Постоянный
Частота кадров : 23,976 кадра/сек
Цветовое пространство : YUV
Субдискретизация насыщенности : 4:2:0
Битовая глубина : 8 бит
Тип развёртки : Прогрессивная
Бит/(Пиксели*Кадры) : 0.207
Размер потока : 1,49 Гбайт (69%)
Заголовок : Darkness (2002)
Библиотека кодирования : x264 core 92 r1510 33d382a
Настройки программы : cabac=1 / ref=7 / deblock=1:-3:-3 / analyse=0x3:0x133 / me=umh / subme=10 / psy=1 / psy_rd=1.00:0.10 / mixed_ref=1 / me_range=64 / chroma_me=1 / trellis=2 / 8x8dct=1 / cqm=0 / deadzone=21,11 / fast_pskip=0 / chroma_qp_offset=-3 / threads=1 / sliced_threads=0 / nr=0 / decimate=1 / interlaced=0 / constrained_intra=0 / bframes=3 / b_pyramid=2 / b_adapt=2 / b_bias=0 / direct=3 / wpredb=1 / wpredp=2 / keyint=250 / keyint_min=25 / scenecut=40 / intra_refresh=0 / rc_lookahead=50 / rc=2pass / mbtree=1 / bitrate=2147 / ratetol=1.0 / qcomp=0.60 / qpmin=10 / qpmax=51 / qpstep=4 / cplxblur=20.0 / qblur=0.5 / ip_ratio=1.40 / aq=1:1.00
Язык : English
Default : Да
Forced : Нет
Аудио #1
Идентификатор : 2
Формат : AC-3
Формат/Информация : Audio Coding 3
Расширение режима : CM (complete main)
Параметр Endianness формата : Big
Идентификатор кодека : A_AC3
Продолжительность : 1 ч. 42 м.
Вид битрейта : Постоянный
Битрейт : 448 Кбит/сек
Каналы : 6 каналов
Расположение каналов : Front: L C R, Side: L R, LFE
Частота : 48,0 КГц
Битовая глубина : 16 бит
Метод сжатия : С потерями
Размер потока : 329 Мбайт (15%)
Заголовок : DUB
Язык : Russian
Default : Да
Forced : Нет
Аудио #2
Идентификатор : 3
Формат : AC-3
Формат/Информация : Audio Coding 3
Расширение режима : CM (complete main)
Параметр Endianness формата : Big
Идентификатор кодека : A_AC3
Продолжительность : 1 ч. 42 м.
Вид битрейта : Постоянный
Битрейт : 448 Кбит/сек
Каналы : 6 каналов
Расположение каналов : Front: L C R, Side: L R, LFE
Частота : 48,0 КГц
Битовая глубина : 16 бит
Метод сжатия : С потерями
Размер потока : 329 Мбайт (15%)
Язык : English
Default : Нет
Forced : Нет
Текст
Идентификатор : 4
Формат : UTF-8
Идентификатор кодека : S_TEXT/UTF8
Идентификатор кодека/Информация : UTF-8 Plain Text
Язык : Russian
Default : Нет
Forced : Нет
Меню
00:00:00.000 : en:00:00:00.000
00:09:37.660 : en:00:09:37.660
00:15:23.381 : en:00:15:23.381
00:23:41.879 : en:00:23:41.879
00:29:44.241 : en:00:29:44.241
00:36:59.509 : en:00:36:59.509
00:44:49.312 : en:00:44:49.312
00:48:13.891 : en:00:48:13.891
00:54:52.915 : en:00:54:52.915
01:02:26.201 : en:01:02:26.201
01:06:01.958 : en:01:06:01.958
01:12:12.954 : en:01:12:12.954
01:17:14.755 : en:01:17:14.755
01:25:38.759 : en:01:25:38.759
01:31:56.511 : en:01:31:56.511
Скриншоты:
Время раздачи: 24/7

[Цитировать]



Показать сообщения:    

Текущее время: 08-Дек 23:09

Часовой пояс: UTC + 3


Вы не можете начинать темы
Вы не можете отвечать на сообщения
Вы не можете редактировать свои сообщения
Вы не можете удалять свои сообщения
Вы не можете голосовать в опросах
Вы не можете прикреплять файлы к сообщениям
Вы не можете скачивать файлы

!ВНИМАНИЕ!
Сайт не предоставляет электронные версии произведений, а занимается лишь коллекционированием и каталогизацией ссылок, присылаемых и публикуемых на форуме нашими читателями. Если вы являетесь правообладателем какого-либо представленного материала и не желаете, чтобы ссылка на него находилась в нашем каталоге, свяжитесь с нами, и мы незамедлительно удалим ее. Файлы для обмена на трекере предоставлены пользователями сайта, и администрация не несет ответственности за их содержание. Просьба не заливать файлы, защищенные авторскими правами, а также файлы нелегального содержания!