[ Сегодня идет свободное скачивание без начисления Download ]


Статистика раздачи
Нет
 
   
 
Top  
 
 
Властелин колец: Кинотрилогия (Расширенная версия) / The Lord of the Rings: The Motion Picture Trilogy
Год выпуска: 2001-2003
Страна: Новая Зеландия, США
Производство: New Line Cinema, WingNut Films, The Saul Zaentz Company
Жанр: фэнтези, боевик, приключения
Режиссер: Питер Джексон
Сценарий: Фрэнсис Уолш, Филиппа Бойенс, Стивен Синклер, ...
В ролях: Элайджа Вуд, Иэн МакКеллен, Вигго Мортенсен, Шон Бин, Орландо Блум, Джон Рис-Дэвис, Иэн Холм, Шон Эстин, Билли Бойд, Доминик Монахэн ...
Перевод 1: Профессиональный (полное дублирование) + вставки Позитив мм на расширенные места.
Перевод 2: Профессиональный (многоголосый, закадровый Позитив мм)
Субтитры: нет
Описание:
Братство кольца:
Сказания о Средиземье — это хроника Великой войны за Кольцо, войны, длившейся не одну тысячу лет. Тот, кто владел Кольцом, получал власть над всеми живыми тварями, но был обязан служить злу.
Тихая деревня, где живут хоббиты. Волшебник Гэндальф, придя на 111-й день рождения к своему старому другу Бильбо Бэггинсу, начинает вести разговор о кольце, которое Бильбо нашел много лет назад. Это кольцо принадлежало когда-то темному властителю Средиземья Саурону, и оно дает большую власть своему обладателю. Теперь Саурон хочет вернуть себе власть над Средиземьем. Бильбо отдает найденное кольцо своему племяннику Фродо, который пытается научиться справляться с тем страшным могуществом, которое дает ему кольцо…
Две крепости:
Братство распалось, но Кольцо Всевластья должно быть уничтожено. Фродо и Сэм вынуждены доверить свои жизни Голлуму, который взялся провести их к вратам Мордора. Громадная Армия Сарумана приближается: члены братства и их союзники готовы принять бой. Битва за Средиземье продолжается.
Возвращение Короля:
Последняя часть трилогии о Кольце Всевластия и о героях, взявших на себя бремя спасения Средиземья. Повелитель сил Тьмы Саурон направляет свои бесчисленные рати под стены Минас-Тирита, крепости Последней Надежды. Он предвкушает близкую победу, но именно это и мешает ему заметить две крохотные фигурки — хоббитов, приближающихся к Роковой Горе, где им предстоит уничтожить Кольцо Всевластия. Улыбнется ли им счастье?.

[kp]328[/kp] [imdb]tt0120737[/imdb]
Качество: DVDRip
Продолжительность: 03:48:18, 03:55:31, 04:23:17
Формат: AVI
Видео кодек: XviD
Аудио кодек: AC3
Видео: 688x288 (2.40:1), 23,976 fps, ~1167 kbps avg, 0,246 bit/pixel
Аудио: 48 kHz, AC3, 2 channels, ~192.00 kbps avg
Премьера (мир): 10 декабря 2001
Премьера (РФ): 7 февраля 2002

Media Info

General
Format                         : AVI
Format/Info                    : Audio Video Interleave
Format profile                 : OpenDML
File size                      : 2.19 GiB
Duration                       : 3h 48mn
Overall bit rate               : 1 371 Kbps
Writing application            : VirtualDubMod 1.5.10.3 | www.virtualdub-fr.org || (build 2550/release)
Writing library                : VirtualDubMod build 2550/release
Video
ID                             : 0
Format                         : MPEG-4 Visual
Format profile                 : Advanced Simple@L5
Format settings, BVOP          : 1
Format settings, QPel          : No
Format settings, GMC           : No warppoints
Format settings, Matrix        : Custom
Codec ID                       : XVID
Codec ID/Hint                  : XviD
Duration                       : 3h 48mn
Bit rate                       : 1 167 Kbps
Width                          : 688 pixels
Height                         : 288 pixels
Display aspect ratio           : 2.40:1
Frame rate                     : 23.976 fps
Color space                    : YUV
Chroma subsampling             : 4:2:0
Bit depth                      : 8 bits
Scan type                      : Progressive
Compression mode               : Lossy
Bits/(Pixel*Frame)             : 0.246
Stream size                    : 1.86 GiB (85%)
Writing library                : XviD 63
Audio
ID                             : 1
Format                         : AC-3
Format/Info                    : Audio Coding 3
Mode extension                 : CM (complete main)
Format settings, Endianness    : Big
Codec ID                       : 2000
Duration                       : 3h 48mn
Bit rate mode                  : Constant
Bit rate                       : 192 Kbps
Channel(s)                     : 2 channels
Channel positions              : Front: L R
Sampling rate                  : 48.0 KHz
Bit depth                      : 16 bits
Compression mode               : Lossy
Stream size                    : 314 MiB (14%)
Alignment                      : Split accross interleaves
Interleave, duration           : 42 ms (1.00 video frame)
Interleave, preload duration   : 500 ms

[Цитировать]

Топик был перенесен из форума Фэнтези в форум Архив
D-r Woland_kz



Показать сообщения:    

Текущее время: 23-Май 09:15

Часовой пояс: UTC + 6


Вы не можете начинать темы
Вы не можете отвечать на сообщения
Вы не можете редактировать свои сообщения
Вы не можете удалять свои сообщения
Вы не можете голосовать в опросах
Вы не можете прикреплять файлы к сообщениям
Вы не можете скачивать файлы

!ВНИМАНИЕ!
Сайт не предоставляет электронные версии произведений, а занимается лишь коллекционированием и каталогизацией ссылок, присылаемых и публикуемых на форуме нашими читателями. Если вы являетесь правообладателем какого-либо представленного материала и не желаете, чтобы ссылка на него находилась в нашем каталоге, свяжитесь с нами, и мы незамедлительно удалим ее. Файлы для обмена на трекере предоставлены пользователями сайта, и администрация не несет ответственности за их содержание. Просьба не заливать файлы, защищенные авторскими правами, а также файлы нелегального содержания!