[ Сегодня идет свободное скачивание без начисления Download ]


Статистика раздачи
Нет
 
   
 
Top  
 
 
Черное золото / Black Gold
-
Страна: Франция, Италия, Тунис, Катар
Жанр: драма
Год выпуска: 2011
Продолжительность: 02:10:12-Перевод: Профессиональный (дублированный) | Лицензия
Cубтитры: Русские (форс. + полные), Английские
Оригинальная аудиодорожка: Английский-Режиссер: Жан-Жак Анно / Jean-Jacques Annaud-В ролях: Тахар Рахим / Tahar Rahim (Prince Auda), Антонио Бандерас / Antonio Banderas (Emir Nesib), Марк Стронг / Mark Strong (Sultan Amar), Фрида Пинто / Freida Pinto (Princess Leyla), Риз Ахмед / Riz Ahmed (Ali), Лия Кебеде / Liya Kebede (Aicha), Кори Джонсон / Corey Johnson (Thurkettle), Эрик Эбони / Eriq Ebouaney (Hassan Dakhil), Акин Гази / Akin Gazi (Saleeh), Жан Уддин / Jan Uddin (Ibn Idriss), Mostafa Gaafar, Jamal Awar-Описание:
События картины разворачиваются где-то на Аравийском полуострове в 30 годы, примерно в то время, когда там была обнаружена нефть. В сюжете переплелись борьба за власть, религия, нефтяная лихорадка и, конечно же, любовь.
- -Качество видео: BDRip-AVC | исх. Black.Gold.2011.1080p.BD-Remux.Rus.Eng.HDCLUB
Формат видео: MKV-Видео: x.264 / 1026 x 438 / 2.35:1 / 2304 kbps / 23,976 fps
Аудио 1: Русский / AC3 Dolby Digital / 48 KHz / 448 kbps / 3/2 (L,C,R,l,r) + LFE ch
Аудио 2: Английский / AC3 Dolby Digital / 48 KHz / 448 kbps / 3/2 (L,C,R,l,r) + LFE ch-СЭМПЛ-Релиз: -

MediaInfo/log

log

x264 [info]: frame I:1537  Avg QP:18.76  size: 61637
x264 [info]: frame P:43919 Avg QP:21.43  size: 21402
x264 [info]: frame B:141852 Avg QP:22.14  size:  8560
x264 [info]: consecutive B-frames:  3.0%  4.6%  8.8% 25.6% 17.2% 26.2%  5.6%  4.2%  1.5%  0.8%  0.5%  0.9%  0.3%  0.2%  0.3%
x264 [info]: mb I  I16..4:  6.0% 74.2% 19.8%
x264 [info]: mb P  I16..4:  2.0% 11.3%  2.3%  P16..4: 42.3% 21.2% 16.0%  1.2%  0.3%    skip: 3.4%
x264 [info]: mb B  I16..4:  0.3%  1.0%  0.3%  B16..8: 42.1% 13.4%  4.2%  direct: 5.9%  skip:32.8%  L0:43.2% L1:46.0% BI:10.9%
x264 [info]: 8x8 transform intra:70.9% inter:61.9%
x264 [info]: direct mvs  spatial:98.2% temporal:1.8%
x264 [info]: coded y,uvDC,uvAC intra: 80.1% 86.9% 66.6% inter: 29.5% 27.3% 11.5%
x264 [info]: i16 v,h,dc,p: 58% 13%  7% 23%
x264 [info]: i8 v,h,dc,ddl,ddr,vr,hd,vl,hu: 13% 10%  5%  9% 14% 13% 13% 11% 12%
x264 [info]: i4 v,h,dc,ddl,ddr,vr,hd,vl,hu: 11% 14%  3%  9% 15% 14% 13% 10% 11%
x264 [info]: i8c dc,h,v,p: 39% 25% 18% 18%
x264 [info]: Weighted P-Frames: Y:4.6% UV:2.2%
x264 [info]: ref P L0: 46.6% 12.6% 15.9%  5.7%  4.8%  3.3%  3.0%  1.6%  1.5%  1.2%  1.1%  0.9%  0.9%  0.8%  0.2%  0.0%
x264 [info]: ref B L0: 70.8% 11.9%  5.7%  3.1%  2.2%  1.8%  1.4%  0.9%  0.7%  0.6%  0.5%  0.3%  0.2%
x264 [info]: ref B L1: 92.4%  7.6%
x264 [info]: SSIM Mean Y:0.9712265 (15.410db)
x264 [info]: kb/s:2302.98
General
Unique ID : 203802909608521463480956771499525897778 (0x9953033C2AD21D22A955BC6078557E32)
Complete name : I:\...\Chernoe.Zoloto.2011.DUAL.BDRip-AVC.AC3.-HQ-ViDEO.mkv
Format : Matroska
Format version : Version 2
File size : 2.91 GiB
Duration : 2h 10mn
Overall bit rate : 3 200 Kbps
Movie name : Black Gold (2011) - HQ-ViDEO
Encoded date : UTC 2012-07-27 04:16:40
Writing application : mkvmerge v5.7.0 ('The Whirlwind') built on Jul 8 2012 20:08:51
Writing library : libebml v1.2.3 + libmatroska v1.3.0
Video
ID : 1
Format : AVC
Format/Info : Advanced Video Codec
Format profile : High@L4.1
Format settings, CABAC : Yes
Format settings, ReFrames : 14 frames
Codec ID : V_MPEG4/ISO/AVC
Duration : 2h 10mn
Bit rate : 2 304 Kbps
Width : 1 026 pixels
Height : 438 pixels
Display aspect ratio : 2.35:1
Frame rate : 23.976 fps
Color space : YUV
Chroma subsampling : 4:2:0
Bit depth : 8 bits
Scan type : Progressive
Bits/(Pixel*Frame) : 0.214
Stream size : 2.04 GiB (70%)
Title : Vaippp
Writing library : x264 core 125 r2200 999b753
Encoding settings : cabac=1 / ref=14 / deblock=1:-2:-1 / analyse=0x3:0x133 / me=umh / subme=10 / psy=1 / psy_rd=1.00:0.00 / mixed_ref=1 / me_range=32 / chroma_me=1 / trellis=2 / 8x8dct=1 / cqm=0 / deadzone=21,11 / fast_pskip=0 / chroma_qp_offset=-2 / threads=12 / lookahead_threads=2 / sliced_threads=0 / nr=0 / decimate=0 / interlaced=0 / bluray_compat=0 / constrained_intra=0 / bframes=14 / b_pyramid=2 / b_adapt=2 / b_bias=0 / direct=3 / weightb=1 / open_gop=0 / weightp=2 / keyint=240 / keyint_min=22 / scenecut=40 / intra_refresh=0 / rc_lookahead=60 / rc=2pass / mbtree=0 / bitrate=2304 / ratetol=1.0 / qcomp=0.73 / qpmin=0 / qpmax=69 / qpstep=4 / cplxblur=20.0 / qblur=0.5 / vbv_maxrate=50000 / vbv_bufsize=62500 / nal_hrd=none / ip_ratio=1.40 / pb_ratio=1.30 / aq=1:0.90 / zones=184899,187307,q=26
Language : English
Default : Yes
Forced : No
Color primaries : BT.709-5, BT.1361, IEC 61966-2-4, SMPTE RP177
Transfer characteristics : BT.709-5, BT.1361
Matrix coefficients : BT.709-5, BT.1361, IEC 61966-2-4 709, SMPTE RP177
Audio #1
ID : 2
Format : AC-3
Format/Info : Audio Coding 3
Mode extension : CM (complete main)
Format settings, Endianness : Big
Codec ID : A_AC3
Duration : 2h 10mn
Bit rate mode : Constant
Bit rate : 448 Kbps
Channel(s) : 6 channels
Channel positions : Front: L C R, Side: L R, LFE
Sampling rate : 48.0 KHz
Bit depth : 16 bits
Compression mode : Lossy
Stream size : 417 MiB (14%)
Title : DUB @ R5
Language : Russian
Default : Yes
Forced : Yes
Audio #2
ID : 3
Format : AC-3
Format/Info : Audio Coding 3
Mode extension : CM (complete main)
Format settings, Endianness : Big
Codec ID : A_AC3
Duration : 2h 10mn
Bit rate mode : Constant
Bit rate : 448 Kbps
Channel(s) : 6 channels
Channel positions : Front: L C R, Side: L R, LFE
Sampling rate : 48.0 KHz
Bit depth : 16 bits
Compression mode : Lossy
Stream size : 417 MiB (14%)
Title : Original
Language : English
Default : No
Forced : No
Text #1
ID : 4
Format : UTF-8
Codec ID : S_TEXT/UTF8
Codec ID/Info : UTF-8 Plain Text
Title : Forced
Language : Russian
Default : Yes
Forced : Yes
Text #2
ID : 5
Format : UTF-8
Codec ID : S_TEXT/UTF8
Codec ID/Info : UTF-8 Plain Text
Title : Full @ R5
Language : Russian
Default : No
Forced : No
Text #3
ID : 6
Format : UTF-8
Codec ID : S_TEXT/UTF8
Codec ID/Info : UTF-8 Plain Text
Language : English
Default : No
Forced : No
Menu
00:00:00.000 : en:00:00:00.000
00:08:13.618 : en:00:08:13.618
00:17:04.440 : en:00:17:04.440
00:24:54.743 : en:00:24:54.743
00:32:44.504 : en:00:32:44.504
00:40:26.924 : en:00:40:26.924
00:47:58.542 : en:00:47:58.542
00:57:42.125 : en:00:57:42.125
01:07:48.731 : en:01:07:48.731
01:17:07.205 : en:01:17:07.205
01:25:29.123 : en:01:25:29.123
01:32:49.689 : en:01:32:49.689
01:41:57.236 : en:01:41:57.236
01:47:43.540 : en:01:47:43.540
01:58:57.505 : en:01:58:57.505
02:08:23.821 : en:02:08:23.821

Скриншоты


[Цитировать]



Показать сообщения:    

Текущее время: 11-Дек 09:11

Часовой пояс: UTC + 3


Вы не можете начинать темы
Вы не можете отвечать на сообщения
Вы не можете редактировать свои сообщения
Вы не можете удалять свои сообщения
Вы не можете голосовать в опросах
Вы не можете прикреплять файлы к сообщениям
Вы не можете скачивать файлы

!ВНИМАНИЕ!
Сайт не предоставляет электронные версии произведений, а занимается лишь коллекционированием и каталогизацией ссылок, присылаемых и публикуемых на форуме нашими читателями. Если вы являетесь правообладателем какого-либо представленного материала и не желаете, чтобы ссылка на него находилась в нашем каталоге, свяжитесь с нами, и мы незамедлительно удалим ее. Файлы для обмена на трекере предоставлены пользователями сайта, и администрация не несет ответственности за их содержание. Просьба не заливать файлы, защищенные авторскими правами, а также файлы нелегального содержания!