[ Сегодня идет свободное скачивание без начисления Download ]


Статистика раздачи
Нет
 
   
 
Top  
 
 
Страна: СССР
Производство: Ленфильм
Жанр: драма, комедия, приключения, история
Год выпуска: 1966
Продолжительность: 01:26:08
Перевод: не требуется
Оригинальная аудиодорожка: русский
Cубтитры: нет
Режиссер: Виталий Мельников
В ролях: Михаил Кононов, Алексей Грибов, Геннадий Данзанов, Николай Волков, Павел Винник, Степан Крылов, Тито Ромалио, Иосиф Конопатский, Алексей Кожевников, Константин Абашевский, Павел Панков, Анатолий Королькевич, Анатолий Абрамов, Александр Захаров, Николай Кузьмин, Лим Су, Михаил Васильев...
Описание: 1922 год. Молодой ревкомовский писарь Алексей Бычков и комиссар Алексей Михайлович Глазков едут из бухты Вознесения в Уйгунан (Чукотка). По дороге Глазков умирает от тифа. По приезду Уйгунан Алексея встречает бывший царский таможенник Храмов. В сложившейся ситуации Алексей назначает себя начальником Чукотки. Он раздаёт голодающим чукчам запасы со склада американского промышленника Стенсона. Храмов препятствует этому и Алексей его арестовывает.
Весной с началом навигации на Чукотку для обмена пушнины начинают прибывать коммерческие корабли разных стран. Алексей требует от Стенсона перестать спаивать чукчей. Он также устанавливает 40 % пошлину на пушнину, следит за тем, чтобы купцы не обманывали чукчей. В итоге собирает миллион долларов пошлины.
Купцы подговаривают контрреволюционное правительство «Свободной Чукотки» избавиться от Алексея. Правительство в полном составе нападает на посёлок. Чукчи отказываются стрелять в людей и Алексею приходится бежать на лодке через Берингов пролив на Аляску...- -Исходник: DVD5 R5
Тип релиза: DVDRip
Контейнер: AVI
Видео: 704x320 (2,2:1), 25 fps, XviD ~ 1071 kbps avg, 0.190 bit/pixel
Аудио: 48 kHz, MP3 2.0, 128 kbps

MediaInfo

Общее
Полное имя : Nachalnik.Chukotki.1966.DVDRip-745_[Youtracker]_by_AVP Studio.avi
Формат : AVI
Формат/Информация : Audio Video Interleave
Размер файла : 745 Мбайт
Продолжительность : 1 ч. 26 м.
Общий поток : 1209 Кбит/сек
Программа кодирования : VirtualDubModRus 1.5.10.2 (build 2542/release)
Библиотека кодирования : VirtualDubMod build 2542/release
Видео
Идентификатор : 0
Формат : MPEG-4 Visual
Профиль формата : Advanced Simple@L5
Параметр BVOP формата : 1
Параметр QPel формата : Нет
Параметр GMC формата : Без точки перехода
Параметр матрицы формата : Выборочная
Идентификатор кодека : XVID
Идентификатор кодека/Подсказка : XviD
Продолжительность : 1 ч. 26 м.
Битрейт : 1071 Кбит/сек
Ширина : 704 пикселя
Высота : 320 пикселей
Соотношение сторон : 2,2:1
Частота кадров : 25,000 кадров/сек
Цветовое пространство : YUV
Субдискретизация насыщенности : 4:2:0
Битовая глубина : 8 бит
Тип развёртки : Прогрессивная
Метод сжатия : С потерями
Бит/(Пиксели*Кадры) : 0.190
Размер потока : 660 Мбайт (89%)
Библиотека кодирования : XviD 65
Аудио
Идентификатор : 1
Формат : MPEG Audio
Версия формата : Version 1
Профиль формата : Layer 3
Идентификатор кодека : 55
Идентификатор кодека/Подсказка : MP3
Продолжительность : 1 ч. 26 м.
Вид битрейта : Постоянный
Битрейт : 128 Кбит/сек
Каналы : 2 канала
Частота : 48,0 КГц
Метод сжатия : С потерями
Размер потока : 78,9 Мбайт (11%)
Выравнивание : Соединение по промежуткам
Продолжительность промежутка : 40 мс. (1,00 видеокадр)
Время предзагрузки промежутка : 504 мс.
Библиотека кодирования : L3.99r
Настройки программы : -m s -V 4 -q 2 -lowpass 17 -b 128

Скриншоты

[Цитировать]

Делали же раньше фильмы, не то что сейчас

[Цитировать]



Показать сообщения:    

Текущее время: 10-Дек 05:58

Часовой пояс: UTC + 3


Вы не можете начинать темы
Вы не можете отвечать на сообщения
Вы не можете редактировать свои сообщения
Вы не можете удалять свои сообщения
Вы не можете голосовать в опросах
Вы не можете прикреплять файлы к сообщениям
Вы не можете скачивать файлы

!ВНИМАНИЕ!
Сайт не предоставляет электронные версии произведений, а занимается лишь коллекционированием и каталогизацией ссылок, присылаемых и публикуемых на форуме нашими читателями. Если вы являетесь правообладателем какого-либо представленного материала и не желаете, чтобы ссылка на него находилась в нашем каталоге, свяжитесь с нами, и мы незамедлительно удалим ее. Файлы для обмена на трекере предоставлены пользователями сайта, и администрация не несет ответственности за их содержание. Просьба не заливать файлы, защищенные авторскими правами, а также файлы нелегального содержания!