[ Сегодня идет свободное скачивание без начисления Download ]


Статистика раздачи
Нет
 
   
 
Top  
 
 
-Всех порву! / Revenge for Jolly! (2012) WEB-DLRip- Русское название: Всех порву!
Оригинальное название: Revenge for Jolly!
Год выпуска: 2012
Производство: США / A Saboteur
Жанр: Драма, Комедия-Описание фильма:
Главный герой при помощи своего двоюродного брата собирается отомстить за смерть своей любимой собаки, которая была убита при странных обстоятельствах. Для поимки преступника герои проводят свое собственное расследование, сметая любые препятствия на своем пути.-Режиссер: Чадд Харбольд
Продюсер: Аарон Л. Гинсбург, Уильям Грин, Брайан Питсос
Актеры: Брайан Питсос, Оскар Айзек, Элайджа Вуд, Райан Филипп, Кристен Уиг, Адам Броди, Джиллиан Джейкобс, Бобби Мойнихэн мл., Кевин Корригэн, Дэвид Раш-Продолжительность: 01:24:32
Перевод: Одноголосый закадровый
Озвучка / Автор перевода: den904 / Janetta- -Дата мировой премьеры: 21 апреля 2012-Видеокодек: Xvid
Битрейт видео: ~1925 kb/s
Размер кадра: 720x304
Качество видео: WEB-DLRip
Аудиокодек: AC3 5.1
Битрейт аудио: 384 kb/s

MediaInfo

Общее
Полное имя : D:\Торрент раздача\Vseh.porvu.2012.WEBRip.1400Mb.avi
Формат : AVI
Формат/Информация : Audio Video Interleave
Размер файла : 1,37 Гбайт
Продолжительность : 1 ч. 24 м.
Общий поток : 2319 Кбит/сек
Программа кодирования : VirtualDubMod 1.5.10.2 (build 2540/release)
Библиотека кодирования : VirtualDubMod build 2540/release
Видео
Идентификатор : 0
Формат : MPEG-4 Visual
Профиль формата : Advanced Simple@L5
Параметр BVOP формата : 2
Параметр QPel формата : Нет
Параметр GMC формата : Без точки перехода
Параметр матрицы формата : Default (H.263)
Идентификатор кодека : XVID
Идентификатор кодека/Подсказка : XviD
Продолжительность : 1 ч. 24 м.
Битрейт : 1925 Кбит/сек
Ширина : 720 пикселей
Высота : 304 пикселя
Соотношение сторон : 2,35:1
Частота кадров : 23,976 кадра/сек
Цветовое пространство : YUV
Субдискретизация насыщенности : 4:2:0
Битовая глубина : 8 бит
Тип развёртки : Прогрессивная
Метод сжатия : С потерями
Бит/(Пиксели*Кадры) : 0.367
Размер потока : 1,14 Гбайт (83%)
Библиотека кодирования : XviD 1.2.1 (UTC 2008-12-04)
Аудио
Идентификатор : 1
Формат : AC-3
Формат/Информация : Audio Coding 3
Расширение режима : CM (complete main)
Параметр Endianness формата : Big
Идентификатор кодека : 2000
Продолжительность : 1 ч. 24 м.
Вид битрейта : Постоянный
Битрейт : 384 Кбит/сек
Каналы : 6 каналов
Расположение каналов : Front: L C R, Side: L R, LFE
Частота : 48,0 КГц
Битовая глубина : 16 бит
Метод сжатия : С потерями
Размер потока : 232 Мбайт (17%)
Выравнивание : Разделение по промежуткам
Продолжительность промежутка : 42 мс. (1,00 видеокадр)
Время предзагрузки промежутка : 500 мс.
Скриншоты:
Время раздачи: 24/7

[Цитировать]



Показать сообщения:    

Текущее время: 28-Мар 10:28

Часовой пояс: UTC + 6


Вы не можете начинать темы
Вы не можете отвечать на сообщения
Вы не можете редактировать свои сообщения
Вы не можете удалять свои сообщения
Вы не можете голосовать в опросах
Вы не можете прикреплять файлы к сообщениям
Вы не можете скачивать файлы

!ВНИМАНИЕ!
Сайт не предоставляет электронные версии произведений, а занимается лишь коллекционированием и каталогизацией ссылок, присылаемых и публикуемых на форуме нашими читателями. Если вы являетесь правообладателем какого-либо представленного материала и не желаете, чтобы ссылка на него находилась в нашем каталоге, свяжитесь с нами, и мы незамедлительно удалим ее. Файлы для обмена на трекере предоставлены пользователями сайта, и администрация не несет ответственности за их содержание. Просьба не заливать файлы, защищенные авторскими правами, а также файлы нелегального содержания!