[ Сегодня идет свободное скачивание без начисления Download ]


Статистика раздачи
Нет
 
   
 
Top  
 
 
- Интернэшнл / The International (2009) BDRip
- «Они контролируют ваши деньги. Они контролируют вашу жизнь. Они контролируют всё и всех. Кроме одного...» - Название: Интернэшнл
Оригинальное название: The International
Год выпуска: 2009
Жанр: Триллер, драма, детектив
Выпущено: США, Германия, Великобритания, Atlas Entertainment, Mosaic Media Group
Описание фильма:
За несколько часов Интерпол теряет двух своих сотрудников. Это происходит не в результате проведения опасной операции: агенты всего лишь вели переговоры с работниками банка. Причины их смерти медики считают вполне естественными, но агент Сэлинджер и помощница окружного прокурора Элеанор сомневаются в этом, подозревая, что к неожиданным смертям причастно руководство банка, отмывающее деньги преступного мира. Они начинают расследование, но неожиданное сопротивление со стороны собственного руководства мешает осуществлению их планов.
Режиссер: Том Тыквер
В ролях: Клайв Оуэн, Наоми Уоттс, Армин Мюллер-Шталь, Ульрих Томсен, Брайан Ф. О’Бирн, Майкл Волетти, Патрик Балади, Джей Вильерз, Фабрис Скотт, Халук Бильгинер, Лука Барбарески, Алессандро Фабрици, Феликс Солис, Джек МакГи, Нилайя Сан, Стивен Рандаззо, Тибор Фельдман
Продолжительность: 01:58:02
Перевод: Дублированный
Релиз группа: HQCLUB

Рейтинг MPAA: R – лицам до 17 лет обязательное присутствие родителей!!!
Дата мировой премьеры: 5 февраля 2009
Дата РФ премьеры: 26 февраля 2009, «BVSPR Sony»
Дата DVD премьеры: 9 апреля 2009, «Columbia/Sony»
Дата Blu-ray премьеры: 3 сентября 2009, «Columbia/Sony»
Видеокодек: Xvid
Битрейт видео: ~ 1863 Кбит/сек
Размер кадра: 720х304
Качество видео: BDRip
Аудио:
Аудио 1: 48 kHz, AC3 Dolby Digital, 3/2 (L,C,R,l,r) + LFE ch, ~384.00 kbps avg (дубляж)
Аудио 2: 48 kHz, AC3 Dolby Digital, 3/2 (L,C,R,l,r) + LFE ch, ~384.00 kbps avg (английский)
Аудио 3: 48 kHz, AC3 Dolby Digital, 3/2 (L,C,R,l,r) + LFE ch, ~384.00 kbps avg (украинский, отдельно)

Знаете ли вы, что...

* Основным источником вдохновения для создателей фильма послужил финансовый скандал, связанный с международным банком “Bank of Credit and Commerce International” в начале 90-х годов. Названия двух банков, вымышленного в фильме и реально существовавшего, довольно похожи, точно также деятельность банка в фильме очень напоминает ту, в которой обвинялся “Bank of Credit and Commerce International”.
* После неудачно прошедших тестовых просмотров премьера фильма была перенесена с августа 2008 года на февраль 2009 года, с тем, чтобы успеть переснять ряд сцен и сделать картину с большим упором на экшен.
* В американские кинотеатры копии с фильмом доставлялись под липовым названием “Across Boundaries”.
* Напряжённая сцена перестрелки с взрывами по сценарию происходит в знаменитом нью-йоркском музее Guggenheim, в ходе которой зданию музея наносится серьёзный урон. Для её съёмок была возведена точная копия внутренних помещений этого здания с использованием оригинальных чертежей внутри старого заброшенного локомотивного депо. На постройку такого массивного сооружения потребовалось 4 месяца работ.
* Во время фильма героиня Наоми Уоттс обменивается SMS посланиями с кем-то из своих контактов. Номер отправителя 352 22 28 09, который высвечивается на ее смартофоне BlackBerry, реально существует и принадлежит туристическому агентству Люксембурга.
* Немецкий федеральный фонд кино предоставил 5,8 млн евро (около 7,9 млн долларов) на производство картины, при условии, что не менее двух третей съёмочного процесса пройдёт в Германии, и в работе над ней будут задействованы немецкие актёры Армин Мюллер-Шталь, Аксель Милберг, оператор Франк Грибе и художник-постановщик Ули Ханиш.

MInfo

Общее
Полное имя : E:\релизы\Interneshnl.2009.DUAL.BDRip.XviD.AC3\Interneshnl.2009.DUAL.BDRip.XviD.AC3.avi
Формат : AVI
Формат/Информация : Audio Video Interleave
Профиль формата : OpenDML
Размер файла : 2,18 Гбайт
Продолжительность : 1 ч. 58 м.
Общий поток : 2648 Кбит/сек
Программа кодирования : VirtualDubMod 1.5.10.2 (build 2542/release)
Библиотека кодирования : VirtualDubMod build 2542/release
Видео
Идентификатор : 0
Формат : MPEG-4 Visual
Профиль формата : Advanced [email protected]
Параметр BVOP формата : 1
Параметр QPel формата : Нет
Параметр GMC формата : Без точки перехода
Параметр матрицы формата : Default (MPEG)
Идентификатор кодека : XVID
Идентификатор кодека/Подсказка : XviD
Продолжительность : 1 ч. 58 м.
Битрейт : 1863 Кбит/сек
Ширина : 720 пикселей
Высота : 304 пикселя
Соотношение сторон : 2,35:1
Частота кадров : 23,976 кадра/сек
Цветовое пространство : YUV
Субдискретизация насыщенности : 4:2:0
Битовая глубина : 8 бит
Тип развёртки : Прогрессивная
Метод сжатия : С потерями
Бит/(Пиксели*Кадры) : 0.355
Размер потока : 1,54 Гбайт (70%)
Библиотека кодирования : XviD 1.2.1 (UTC 2008-12-04)
Аудио #1
Идентификатор : 1
Формат : AC-3
Формат/Информация : Audio Coding 3
Расширение режима : CM (complete main)
Параметр Endianness формата : Big
Идентификатор кодека : 2000
Продолжительность : 1 ч. 58 м.
Вид битрейта : Постоянный
Битрейт : 384 Кбит/сек
Каналы : 6 каналов
Расположение каналов : Front: L C R, Side: L R, LFE
Частота : 48,0 КГц
Битовая глубина : 16 бит
Метод сжатия : С потерями
Размер потока : 324 Мбайт (15%)
Выравнивание : Разделение по промежуткам
Продолжительность промежутка : 42 мс. (1,00 видеокадр)
Время предзагрузки промежутка : 500 мс.
Аудио #2
Идентификатор : 2
Формат : AC-3
Формат/Информация : Audio Coding 3
Расширение режима : CM (complete main)
Параметр Endianness формата : Big
Идентификатор кодека : 2000
Продолжительность : 1 ч. 58 м.
Вид битрейта : Постоянный
Битрейт : 384 Кбит/сек
Каналы : 6 каналов
Расположение каналов : Front: L C R, Side: L R, LFE
Частота : 48,0 КГц
Битовая глубина : 16 бит
Метод сжатия : С потерями
Размер потока : 324 Мбайт (15%)
Выравнивание : Разделение по промежуткам
Продолжительность промежутка : 42 мс. (1,00 видеокадр)
Время предзагрузки промежутка : 500 мс.
Аудио #3
Идентификатор : 3
Формат : AC-3
Формат/Информация : Audio Coding 3
Расширение режима : CM (complete main)
Параметр Endianness формата : Big
Продолжительность : 1 ч. 58 м.
Вид битрейта : Постоянный
Битрейт : 384 Кбит/сек
Каналы : 6 каналов
Расположение каналов : Front: L C R, Side: L R, LFE
Частота : 48,0 КГц
Битовая глубина : 16 бит
Метод сжатия : С потерями
Размер потока : 324 Мбайт (100%)
Скриншоты:

-Раздача: с 18:00 до 22:00 ежедневно-

[Цитировать]



Показать сообщения:    

Текущее время: 05-Дек 03:31

Часовой пояс: UTC + 3


Вы не можете начинать темы
Вы не можете отвечать на сообщения
Вы не можете редактировать свои сообщения
Вы не можете удалять свои сообщения
Вы не можете голосовать в опросах
Вы не можете прикреплять файлы к сообщениям
Вы не можете скачивать файлы

!ВНИМАНИЕ!
Сайт не предоставляет электронные версии произведений, а занимается лишь коллекционированием и каталогизацией ссылок, присылаемых и публикуемых на форуме нашими читателями. Если вы являетесь правообладателем какого-либо представленного материала и не желаете, чтобы ссылка на него находилась в нашем каталоге, свяжитесь с нами, и мы незамедлительно удалим ее. Файлы для обмена на трекере предоставлены пользователями сайта, и администрация не несет ответственности за их содержание. Просьба не заливать файлы, защищенные авторскими правами, а также файлы нелегального содержания!