[ Сегодня идет свободное скачивание без начисления Download ]


Статистика раздачи
Нет
 
   
 
Top  
 
 
-На живца / Bait (2000) DVDRip [H.264] -«Alvin Sanders is going to help the Feds catch a killer. He just doesn't know it yet.»- Русское название: На живца
Оригинальное название: Bait
Год выпуска: 2000
Жанр: Боевик, Триллер, Комедия, Криминал
Производство: Канада, Австралия, США / Bait Films, Castle Rock Entertainment, Village Roadshow Pictures
Описание фильма:
Золотой запас США охраняется сложнейшей компьютерной системой безопасности. Именно ее удалось взломать неизвестному хакеру. Охрана убита, золото исчезло. Один из преступников, спрятавший добычу, умирает в тюремной камере. Его сокамерника, мелкого воришку Элвина, выпускают из тюрьмы и вручают 11,500 $ на "карманные расходы". Он подозревает, что стал наживкой в хитроумной и беспощадной игре спецслужб, которые ищут таинственного хакера-убийцу.
Режиссер: Антуан Фукуа
Сценарий: Эндрю Шайнмен, Адам Шейнман, Тони Гилрой
Продюсер: Шон Райэрсон, Джозеф Боччиа, Тони Гилрой
Актеры: Джейми Фокс, Дэвид Морс, Роберт Пасторелли, Даг Хатчисон, Кимберли Элиз, Дэвид Пэймер, Майк Эппс, Джейми Кеннеди, Нестор Серрано, Кирк Асеведо
Продолжительность: 01:54:31
Перевод: Дублированный (Студия «Мост-Видео»)

Дата мировой премьеры: 29 августа 2000
Дата выхода DVD релиза: 1 сентября 2011, «CP-Digital»
Видеокодек: MPEG-4 AVC/H.264
Битрейт видео: ~1799 Кбит/сек
Размер кадра: 720x304
Качество видео: DVDRip
Аудиокодек: AC3 5.1
Битрейт аудио: 384 Кбит/сек

MediaInfo:

General
Unique ID : 213491690557420629462887695734487643547 (0xA09D0104531CA1728840DA34BC5BF59B)
Complete name : H:\Downloads\На живца.mkv
Format : Matroska
Format version : Version 4 / Version 2
File size : 1.75 GiB
Duration : 1h 54mn
Overall bit rate : 2 185 Kbps
Encoded date : UTC 2013-05-09 08:35:16
Writing application : mkvmerge v6.0.0 ('Coming Up For Air') built on Jan 20 2013 09:52:00
Writing library : libebml v1.3.0 + libmatroska v1.4.0
Video
ID : 1
Format : AVC
Format/Info : Advanced Video Codec
Format profile : [email protected]
Format settings, CABAC : Yes
Format settings, ReFrames : 8 frames
Codec ID : V_MPEG4/ISO/AVC
Duration : 1h 54mn
Bit rate : 1 799 Kbps
Width : 720 pixels
Height : 304 pixels
Display aspect ratio : 2.35:1
Frame rate mode : Constant
Frame rate : 25.000 fps
Color space : YUV
Chroma subsampling : 4:2:0
Bit depth : 8 bits
Scan type : Progressive
Bits/(Pixel*Frame) : 0.329
Stream size : 1.41 GiB (80%)
Title : Bait
Writing library : x264 core 129 r2230 1cffe9f
Encoding settings : cabac=1 / ref=8 / deblock=1:-1:-1 / analyse=0x3:0x113 / me=umh / subme=9 / psy=1 / psy_rd=1.00:0.00 / mixed_ref=1 / me_range=32 / chroma_me=1 / trellis=2 / 8x8dct=1 / cqm=0 / deadzone=21,11 / fast_pskip=1 / chroma_qp_offset=-2 / threads=6 / lookahead_threads=1 / sliced_threads=0 / nr=0 / decimate=1 / interlaced=0 / bluray_compat=0 / constrained_intra=0 / bframes=3 / b_pyramid=2 / b_adapt=2 / b_bias=0 / direct=3 / weightb=1 / open_gop=0 / weightp=2 / keyint=250 / keyint_min=25 / scenecut=40 / intra_refresh=0 / rc_lookahead=40 / rc=2pass / mbtree=1 / bitrate=1799 / ratetol=1.0 / qcomp=0.60 / qpmin=10 / qpmax=51 / qpstep=4 / cplxblur=20.0 / qblur=0.5 / ip_ratio=1.40 / aq=1:1.00
Language : English
Default : Yes
Forced : No
Audio
ID : 2
Format : AC-3
Format/Info : Audio Coding 3
Mode extension : CM (complete main)
Format settings, Endianness : Big
Codec ID : A_AC3
Duration : 1h 54mn
Bit rate mode : Constant
Bit rate : 384 Kbps
Channel(s) : 6 channels
Channel positions : Front: L C R, Side: L R, LFE
Sampling rate : 48.0 KHz
Bit depth : 16 bits
Compression mode : Lossy
Delay relative to video : 1ms
Stream size : 315 MiB (18%)
Title : Дублированный
Language : Russian
Default : Yes
Forced : No
Скриншоты:

[Цитировать]



Показать сообщения:    

Текущее время: 06-Дек 20:59

Часовой пояс: UTC + 3


Вы не можете начинать темы
Вы не можете отвечать на сообщения
Вы не можете редактировать свои сообщения
Вы не можете удалять свои сообщения
Вы не можете голосовать в опросах
Вы не можете прикреплять файлы к сообщениям
Вы не можете скачивать файлы

!ВНИМАНИЕ!
Сайт не предоставляет электронные версии произведений, а занимается лишь коллекционированием и каталогизацией ссылок, присылаемых и публикуемых на форуме нашими читателями. Если вы являетесь правообладателем какого-либо представленного материала и не желаете, чтобы ссылка на него находилась в нашем каталоге, свяжитесь с нами, и мы незамедлительно удалим ее. Файлы для обмена на трекере предоставлены пользователями сайта, и администрация не несет ответственности за их содержание. Просьба не заливать файлы, защищенные авторскими правами, а также файлы нелегального содержания!