[ Сегодня идет свободное скачивание без начисления Download ]


Статистика раздачи
Нет
 
   
 
Top  
 
 
-Человек ниоткуда (серии 1-8 из 16) (2013) DVB (обновляемая)- Русское название: Человек ниоткуда
Производство: "Motor Film Studio"
Год выпуска: 2013
Жанр: Криминал, Детектив
Режиссер: Юрий Попович, Евгений Малков, Илья Казанков
Актеры: Игорь Лифанов, Марина Петренко, Александр Тютин, Иван Шабалтас, Александр Кузнецов, Виктория Герасимова, Дарья Андреева, Игорь Филиппов, Владимир Наджафов, Наталия Лесниковская, Дмитрий Ермак, Бесо Гатаев, Денис Дружинин, Андрей Муравьёв, Андрей Кравчук, Николай Зазуля, Алексей Костерев, Александр Сергеев, Александра Булычёва, Андрей Железный, Ирина Савицкова, Саркис Амирзян, Рустам Абдрашитов, Николай Бутенин, Василий Заболотний
Описание фильма:
Агент полицейской разведки Сергей Кутепов внедряется в преступную наркогруппировку, возглавляемую бывшим руководителем отдела по борьбе с незаконным оборотом наркотиков Потаповым. Кроме сбора доказательств преступлений Потапова и его окружения, Сергей преследует еще одну цель — он хочет найти в криминальной среде исполнителя и заказчика убийства своей жены Марины.

Дата российской премьеры: 13.05.2013
Продолжительность: ~ 00:44:00
Качество видео: DVBRip
Видеокодек: MPEG-2
Битрейт видео: ~4700 Kbps
Размер кадра: 720x576 (4:3)
Аудиокодек: MP2
Битрейт аудио: 2 ch, 192 Kbps

MediaInfo:

Общее
Полное имя : E:\DOWNLOADS\Человек ниоткуда (2013) DVB\Человек ниоткуда - 01 серия.mpg
Формат : MPEG-PS
Размер файла : 1,52 Гбайт
Продолжительность : 43 м.
Режим общего битрейта : Переменный
Общий поток : 5001 Кбит/сек
Библиотека кодирования : (c) 1998-2012 Womble Multimedia, Inc. / MPEG Video Wizard DVD 5.0.1.100 (03/2011) / Sep 7 2012
Видео
Идентификатор : 224 (0xE0)
Формат : MPEG Video
Версия формата : Version 2
Профиль формата : [email protected]
Параметр BVOP формата : Да
Параметр матрицы формата : Выборочная
Параметр GOP формата : Variable
Продолжительность : 43 м.
Вид битрейта : Переменный
Битрейт : 4709 Кбит/сек
Максимальный битрейт : 15,0 Мбит/сек
Ширина : 720 пикселей
Высота : 576 пикселей
Соотношение сторон : 4:3
Частота кадров : 25,000 кадров/сек
Стандарт вещания : PAL
Цветовое пространство : YUV
Субдискретизация насыщенности : 4:2:0
Битовая глубина : 8 бит
Тип развёртки : Чересстрочная
Порядок развёртки : Верхнее поле первое
Метод сжатия : С потерями
Бит/(Пиксели*Кадры) : 0.454
TimeCode_FirstFrame : 00:00:00:00
TimeCode_Source : Group of pictures header
Размер потока : 1,43 Гбайт (94%)
Библиотека кодирования : (c) 1998-2012 Womble Multimedia, Inc. / MPEG Video Wizard DVD 5.0.1.100 (03/2011) / Sep 7 2012
Аудио
Идентификатор : 192 (0xC0)
Формат : MPEG Audio
Версия формата : Version 1
Профиль формата : Layer 2
Продолжительность : 43 м.
Вид битрейта : Постоянный
Битрейт : 192 Кбит/сек
Каналы : 2 канала
Частота : 48,0 КГц
Метод сжатия : С потерями
Размер потока : 59,7 Мбайт (4%)

Описание обновления торрента

Внимание! Раздача ведётся путём добавления новых серий; при каждом добавлении создётся новый торрент. Чтобы начать докачку новой серии, пользователям необходимо сделать следующее:
1. Остановить скачивание.
2. Удалить старый торрент у себя из клиента (старые серии удалять не надо).
3. Скачать новый торрент и запустить его у себя в клиенте вместо старого, при этом указать клиенту путь в старую папку куда и должно происходить скачивание новых серий.
Ваш клиент при этом должен произвести хеширование (проверку) старой папки (если не производит сам - помогите ему сделать это), и будет докачивать только те серии которых у вас ещё нет. Старые серии при этом не удаляются, а продолжают раздаваться!
Eсли вы уже удалили старые серии, то предотвратить повторную закачку старых серий можно, отжав галочку в соответствующих местах при запуске нового торрента. По возможности, желательно не удалять старые серии как можно дольше чтобы релизёр не столько продолжал раздавать старые серии, а смог сконцентрироваться на новых.
Скриншоты:
Время раздачи: с 10.00 до 20.00

[Цитировать]



Показать сообщения:    

Текущее время: 05-Дек 01:28

Часовой пояс: UTC + 3


Вы не можете начинать темы
Вы не можете отвечать на сообщения
Вы не можете редактировать свои сообщения
Вы не можете удалять свои сообщения
Вы не можете голосовать в опросах
Вы не можете прикреплять файлы к сообщениям
Вы не можете скачивать файлы

!ВНИМАНИЕ!
Сайт не предоставляет электронные версии произведений, а занимается лишь коллекционированием и каталогизацией ссылок, присылаемых и публикуемых на форуме нашими читателями. Если вы являетесь правообладателем какого-либо представленного материала и не желаете, чтобы ссылка на него находилась в нашем каталоге, свяжитесь с нами, и мы незамедлительно удалим ее. Файлы для обмена на трекере предоставлены пользователями сайта, и администрация не несет ответственности за их содержание. Просьба не заливать файлы, защищенные авторскими правами, а также файлы нелегального содержания!