[ Сегодня идет свободное скачивание без начисления Download ]


Статистика раздачи
Нет
 
   
 
Top  
 
 
-Провалы в памяти / Black Out (2012) HDRip- Русское название: Провалы в памяти
Оригинальное название: Black Out
Год выпуска: 2012
Производство: Нидерланды / Hazazah Pictures, Orange Film, BNN TV
Жанр: Триллер, Боевик, Комедия-Описание фильма:
В отчаянной попытке спасти свой брак Рауль приглашает жену Ану и 7-летнего сына Нико провести рождество в домике в горах. Когда Ана и Нико подружились с местным жителем Самуэлем, Рауль начинает безумно ревновать. Рауль пытается избавиться от незваного гостя, но тщетно. И вот он приглашает его на рождественский ужин с целью уличить его в романе с женой, но вечер заканчивается благополучно и Самуэль уходит. В эту ночь Раулю снятся кошмары. Всё закончилось не совсем так, всё было иначе...-Режиссер: Арне Тунен
Актеры: Рэймонд Тири, Ким ван Кутен, Бас Кейзер, Рени Фоккер, Катя Шурман, Биргит Шуурман, Алекс ван Вармердам-Продолжительность: 01:32:32
Перевод: Одноголосый закадровый [den904] перевод [kon2011]- -Дата мировой премьеры: 26 января 2012-Видеокодек: Xvid
Битрейт видео: ~933 kb/s
Размер кадра: 720x304
Качество видео: HDRip
Аудиокодек: AC3 2.0
Битрейт аудио: 192 kb/s

MediaInfo

Общее
Полное имя : D:\Торрент раздача\Black.Out.2012.HDRip.L1.750Mb.avi
Формат : AVI
Формат/Информация : Audio Video Interleave
Размер файла : 751 Мбайт
Продолжительность : 1 ч. 32 м.
Общий поток : 1134 Кбит/сек
Программа кодирования : VirtualDubMod 1.5.10.2 (build 2540/release)
Библиотека кодирования : VirtualDub build 32661/release
Видео
Идентификатор : 0
Формат : MPEG-4 Visual
Профиль формата : Advanced Simple@L5
Параметр BVOP формата : 2
Параметр QPel формата : Нет
Параметр GMC формата : Без точки перехода
Параметр матрицы формата : Default (H.263)
Режим смешивания : Сжатый битовый поток
Идентификатор кодека : XVID
Идентификатор кодека/Подсказка : XviD
Продолжительность : 1 ч. 32 м.
Битрейт : 933 Кбит/сек
Ширина : 720 пикселей
Высота : 304 пикселя
Соотношение сторон : 2,35:1
Частота кадров : 24,000 кадра/сек
Цветовое пространство : YUV
Субдискретизация насыщенности : 4:2:0
Битовая глубина : 8 бит
Тип развёртки : Прогрессивная
Метод сжатия : С потерями
Бит/(Пиксели*Кадры) : 0.178
Размер потока : 617 Мбайт (82%)
Библиотека кодирования : XviD 64
Аудио
Идентификатор : 1
Формат : AC-3
Формат/Информация : Audio Coding 3
Расширение режима : CM (complete main)
Параметр Endianness формата : Big
Идентификатор кодека : 2000
Продолжительность : 1 ч. 32 м.
Вид битрейта : Постоянный
Битрейт : 192 Кбит/сек
Каналы : 2 канала
Расположение каналов : Front: L R
Частота : 48,0 КГц
Битовая глубина : 16 бит
Метод сжатия : С потерями
Размер потока : 127 Мбайт (17%)
Выравнивание : Соединение по промежуткам
Продолжительность промежутка : 42 мс. (1,00 видеокадр)
Время предзагрузки промежутка : 512 мс.
Скриншоты:
Время раздачи: 24/7

[Цитировать]



Показать сообщения:    

Текущее время: 09-Дек 22:29

Часовой пояс: UTC + 3


Вы не можете начинать темы
Вы не можете отвечать на сообщения
Вы не можете редактировать свои сообщения
Вы не можете удалять свои сообщения
Вы не можете голосовать в опросах
Вы не можете прикреплять файлы к сообщениям
Вы не можете скачивать файлы

!ВНИМАНИЕ!
Сайт не предоставляет электронные версии произведений, а занимается лишь коллекционированием и каталогизацией ссылок, присылаемых и публикуемых на форуме нашими читателями. Если вы являетесь правообладателем какого-либо представленного материала и не желаете, чтобы ссылка на него находилась в нашем каталоге, свяжитесь с нами, и мы незамедлительно удалим ее. Файлы для обмена на трекере предоставлены пользователями сайта, и администрация не несет ответственности за их содержание. Просьба не заливать файлы, защищенные авторскими правами, а также файлы нелегального содержания!