[ Сегодня идет свободное скачивание без начисления Download ]


Статистика раздачи
Нет
 
   
 
Top  
 
 
-Техасская резня бензопилой 3D / Texas Chainsaw 3D (2013) HDRip«Evil has many faces.»- Русское название: Техасская резня бензопилой 3D
Оригинальное название: Texas Chainsaw 3D
Год выпуска: 2013
Производство: США
Жанр: Ужасы, Триллер, Детектив
Перевод: Дублированное [Чистый звук]
Субтитры: Отсутствуют
Дата мировой премьеры: 3 января 2013
Дата российской премьеры: 7 февраля 2013, «Наше Кино»
Режиссер: Джон Льюсенхоп
Продюсер: Карл Маццоконе, Синди Бреннер, Марк Бёрг
Актеры: Александра Даддарио, Дэн Йеджер, Трей Сонгз, Скотт Иствуд, Таня Рэймонд, Шон Сайпос, Керам Малики-Санчес, Джеймс МакДональд, Том Бэрри, Пол Рэй
Описание фильма:
Молодая девушка неожиданно узнает адрес проживания своей ныне покойной бабушки, которую никогда не видела. Взяв с собой друзей, она отправляется в путешествие. Компания молодых людей наслаждается пребыванием в шикарном доме, гадая о том, чем же занималась его бывшая владелица.
Никто из друзей не удосужился заблаговременно поинтересоваться историй дома и городка. И зря. Оказывается, несколько лет назад в этом городе «приятно проводил время» маньяк с бензопилой, затем его убили жители города, но вскоре убийца вернулся и принялся опять убивать. Некоторое время о маньяке никто не слышал, о нем почти забыли, но он не умер, а теперь решил позабавиться с молодежью в красивом доме. Техасская резня бензопилой 3D является новым фильмом ужасов.

Продолжительность: 01:31:44
Качество видео: HDRip
Видеокодек: Xvid
Битрейт видео: ~1801 Kbit/s
Размер кадра: 720 x 304
Аудиокодек: AC3 5.1
Битрейт аудио: 448 Kbit/s

MediaInfo

Общее
Полное имя : D:\Торренты\ФИЛЬМЫ торента\Техасская резня бензопилой 3D .2013.HDRip.avi
Формат : AVI
Формат/Информация : Audio Video Interleave
Размер файла : 1,45 Гбайт
Продолжительность : 1 ч. 31 м.
Общий поток : 2259 Кбит/сек
Программа кодирования : VirtualDubMod 1.5.10.2 (build 2540/release)
Библиотека кодирования : VirtualDubMod build 2540/release
Видео
Идентификатор : 0
Формат : MPEG-4 Visual
Профиль формата : Advanced [email protected]
Параметр BVOP формата : 4
Параметр QPel формата : Нет
Параметр GMC формата : Без точки перехода
Параметр матрицы формата : Default (H.263)
Режим смешивания : Сжатый битовый поток
Идентификатор кодека : XVID
Идентификатор кодека/Подсказка : XviD
Продолжительность : 1 ч. 31 м.
Битрейт : 1801 Кбит/сек
Ширина : 720 пикс.
Высота : 304 пикс.
Соотношение сторон : 2,35:1
Частота кадров : 23,976 кадр/сек
Цветовое пространство : YUV
Подвыборка цветности : 4:2:0
Битовая глубина : 8 бит
Тип развёртки : Прогрессивная
Метод сжатия : С потерями
Бит/(Пиксели*Кадры) : 0.343
Размер потока : 1,16 Гбайт (80%)
Библиотека кодирования : XviD 1.2.1 (UTC 2008-12-04)
Аудио
Идентификатор : 1
Формат : AC-3
Формат/Информация : Audio Coding 3
Расширение режима : CM (complete main)
Идентификатор кодека : 2000
Продолжительность : 1 ч. 31 м.
Вид битрейта : Постоянный
Битрейт : 448 Кбит/сек
Каналы : 6 каналов
Расположение каналов : Front: L C R, Side: L R, LFE
Частота : 48,0 КГц
Битовая глубина : 16 бит
Метод сжатия : С потерями
Размер потока : 295 Мбайт (20%)
Выравнивание : Разделение по промежуткам
Продолжительность промежутка : 42 мс. (1,00 видеокадр)
Время предзагрузки промежутка : 500 ms
Скриншоты:
Время раздачи: 24/7 по возможности

[Цитировать]

Топик был перенесен из форума Новинки кинопроката в форум Ужасы
Henkok



Показать сообщения:    

Текущее время: 04-Дек 17:23

Часовой пояс: UTC + 3


Вы не можете начинать темы
Вы не можете отвечать на сообщения
Вы не можете редактировать свои сообщения
Вы не можете удалять свои сообщения
Вы не можете голосовать в опросах
Вы не можете прикреплять файлы к сообщениям
Вы не можете скачивать файлы

!ВНИМАНИЕ!
Сайт не предоставляет электронные версии произведений, а занимается лишь коллекционированием и каталогизацией ссылок, присылаемых и публикуемых на форуме нашими читателями. Если вы являетесь правообладателем какого-либо представленного материала и не желаете, чтобы ссылка на него находилась в нашем каталоге, свяжитесь с нами, и мы незамедлительно удалим ее. Файлы для обмена на трекере предоставлены пользователями сайта, и администрация не несет ответственности за их содержание. Просьба не заливать файлы, защищенные авторскими правами, а также файлы нелегального содержания!