[ Сегодня идет свободное скачивание без начисления Download ]


Статистика раздачи
Нет
 
   
 
Top  
 
 
-Человек, который смеется / L'homme qui rit (2012) DVDRip- Русское название: Человек, который смеется
Оригинальное название: L'homme qui rit
Год выпуска: 2012
Производство: Франция, Чехия
Жанр: Драма
Описание фильма:
Двое обездоленных детей — Дея и Гуинплен, которых приютил и воспитал бродячий скоморох Урсус, выросли чистыми и благородными людьми. На лице Гуинплена, обезображенного в раннем детстве, застыла гримаса вечного смеха, но смеется только его лицо, а не он сам. У женщин он вызывает отвращение, но для слепой Деи нет никого прекраснее Гуинплена…
Режиссер: Жан-Пьер Амери
Актеры: Жерар Депардье, Марк-Андре Гронден, Эмманюэль Сенье, Криста Тере, Арбен Байрактарай, Сванн Арло, Джозеф Брадна, Маркета Хрубешова, Владимир Яворски, Серж Мерлен
Продолжительность: 01:29:45
Перевод: Многоголосый закадровый [лицензия]

Дата мировой премьеры: 8 сентября 2012
Дата выхода DVD релиза: 21 мая 2013, «Парадиз / Активижен»
Видеокодек: Xvid
Битрейт видео: ~1788 Kb/s
Размер кадра: 720x400
Качество видео: DVDRip
Аудиокодек: AC3 5.1
Битрейт аудио: 384 Kb/s

MediaInfo:

Общее
Полное имя : C:Торренты\Человек, который смеется.2012.DVDRip.avi
Формат : AVI
Формат/Информация : Audio Video Interleave
Размер файла : 1,37 Гбайт
Продолжительность : 1 ч. 29 м.
Общий поток : 2183 Кбит/сек
Программа кодирования : VirtualDubMod 1.5.10. (build 2550/release)
Библиотека кодирования : VirtualDubMod build 2550/release
Видео
Идентификатор : 0
Формат : MPEG-4 Visual
Профиль формата : Advanced [email protected]
Параметр BVOP формата : 4
Параметр QPel формата : Нет
Параметр GMC формата : Без точки перехода
Параметр матрицы формата : Выборочная
Идентификатор кодека : XVID
Идентификатор кодека/Подсказка : XviD
Продолжительность : 1 ч. 29 м.
Битрейт : 1789 Кбит/сек
Ширина : 720 пикселей
Высота : 400 пикселей
Соотношение сторон : 16:9
Частота кадров : 25,000 кадров/сек
Цветовое пространство : YUV
Субдискретизация насыщенности : 4:2:0
Битовая глубина : 8 бит
Тип развёртки : Прогрессивная
Метод сжатия : С потерями
Бит/(Пиксели*Кадры) : 0.248
Размер потока : 1,12 Гбайт (82%)
Библиотека кодирования : XviD 65
Аудио
Идентификатор : 1
Формат : AC-3
Формат/Информация : Audio Coding 3
Расширение режима : CM (complete main)
Параметр Endianness формата : Big
Идентификатор кодека : 2000
Продолжительность : 1 ч. 29 м.
Вид битрейта : Постоянный
Битрейт : 384 Кбит/сек
Каналы : 6 каналов
Расположение каналов : Front: L C R, Side: L R, LFE
Частота : 48,0 КГц
Битовая глубина : 16 бит
Метод сжатия : С потерями
Размер потока : 247 Мбайт (18%)
Выравнивание : Разделение по промежуткам
Продолжительность промежутка : 40 мс. (1,00 видеокадр)
Время предзагрузки промежутка : 500 мс.
Скриншоты: Время раздачи: с 10.00 до 23.00

[Цитировать]



Показать сообщения:    

Текущее время: 06-Дек 19:03

Часовой пояс: UTC + 3


Вы не можете начинать темы
Вы не можете отвечать на сообщения
Вы не можете редактировать свои сообщения
Вы не можете удалять свои сообщения
Вы не можете голосовать в опросах
Вы не можете прикреплять файлы к сообщениям
Вы не можете скачивать файлы

!ВНИМАНИЕ!
Сайт не предоставляет электронные версии произведений, а занимается лишь коллекционированием и каталогизацией ссылок, присылаемых и публикуемых на форуме нашими читателями. Если вы являетесь правообладателем какого-либо представленного материала и не желаете, чтобы ссылка на него находилась в нашем каталоге, свяжитесь с нами, и мы незамедлительно удалим ее. Файлы для обмена на трекере предоставлены пользователями сайта, и администрация не несет ответственности за их содержание. Просьба не заливать файлы, защищенные авторскими правами, а также файлы нелегального содержания!