[ Сегодня идет свободное скачивание без начисления Download ]


Статистика раздачи
Нет
 
   
 
Top  
 
 
Я, Алекс Кросс / Alex Cross«Жестокое преступление. Извращенный убийца. Смертельная игра»
Год выпуска: 2012
Страна: США
Производство: Envision Entertainment Corporation, IAC Productions, James Patterson Entertainment, QED International
Жанр: Боевик, триллер, криминал, детектив
Режиссер: Роб Коэн
В ролях: Тайлер Перри, Мэттью Фокс, Эдвард Бёрнс, Рэйчел Николс, Жан Рено, Кармен Эджого, Сисели Тайсон, Джон К. МакГинли, Джанкарло Эспозито, Чэд Линдберг
Перевод: Профессиональный (полное дублирование)
Субтитры: Отсутствуют
Описание: Знаменитый детектив Алекс Кросс идет по следам серийного убийцы, и с удивлением обнаруживает, что почерк преступника соответствует манере действий безжалостного маньяка по прозвищу Мясник. Десять лет назад Кросс сорвал исполнение одного из его смертельных контрактов, за что Мясник убил беременную жену полицейского и бесследно исчез. Неужели он вернулся? Кросс вступает в смертельную игру.
[kp]566232[/kp] [imdb]tt1712170[/imdb]
Качество: BDRip
Продолжительность: 01:41:23 час.
Формат: AVI
Видео кодек: XviD
Аудио кодек: AC3
Видео: 720x400 (1.80:1), 24 fps, XviD build 50 ~1599 kbps avg, 0.23 bit/pixel
Аудио: 48 kHz, AC3 Dolby Digital, 3/2 (L,C,R,l,r) + LFE ch, ~448 kbps
Премьера (мир): 15 октября 2012
Премьера (РФ): 18 октября 2012, «Парадиз»

Media Info

Format                                   : AVI
Format/Info                              : Audio Video Interleave
File size                                : 1.46 GiB
Duration                                 : 1h 41mn
Overall bit rate                         : 2 057 Kbps
Movie name                               : Ja.Aleks.Kross.2012.D.BDRip.IRONCLUB
Director                                 : IRONCLUB
Genre                                    : Action | Crime | Mystery
Writing application                      : VirtualDubMod 1.5.10.3 | www.virtualdub-fr.org || (build 2550/release)
Original source form/Name                : Movie
Copyright                                : http://ironclub.tv/
Video
ID                                       : 0
Format                                   : MPEG-4 Visual
Format profile                           : Advanced Simple@L5
Format settings, BVOP                    : 2
Format settings, QPel                    : No
Format settings, GMC                     : No warppoints
Format settings, Matrix                  : Custom
Codec ID                                 : XVID
Codec ID/Hint                            : XviD
Duration                                 : 1h 41mn
Bit rate                                 : 1 599 Kbps
Width                                    : 720 pixels
Height                                   : 400 pixels
Display aspect ratio                     : 16:9
Frame rate                               : 24.000 fps
Color space                              : YUV
Chroma subsampling                       : 4:2:0
Bit depth                                : 8 bits
Scan type                                : Progressive
Compression mode                         : Lossy
Bits/(Pixel*Frame)                       : 0.231
Stream size                              : 1.13 GiB (78%)
Writing library                          : XviD 1.2.1 (UTC 2008-12-04)
Audio
ID                                       : 1
Format                                   : AC-3
Format/Info                              : Audio Coding 3
Mode extension                           : CM (complete main)
Format settings, Endianness              : Big
Codec ID                                 : 2000
Duration                                 : 1h 41mn
Bit rate mode                            : Constant
Bit rate                                 : 448 Kbps
Channel(s)                               : 6 channels
Channel positions                        : Front: L C R, Side: L R, LFE
Sampling rate                            : 48.0 KHz
Bit depth                                : 16 bits
Compression mode                         : Lossy
Stream size                              : 325 MiB (22%)
Alignment                                : Split accross interleaves
Interleave, duration                     : 42 ms (1.00 video frame)
Interleave, preload duration             : 500 ms

Скриншоты

[Цитировать]

Топик был перенесен из форума Новинки кинопроката в форум Боевик
Henkok



Показать сообщения:    

Текущее время: 03-Дек 01:24

Часовой пояс: UTC + 3


Вы не можете начинать темы
Вы не можете отвечать на сообщения
Вы не можете редактировать свои сообщения
Вы не можете удалять свои сообщения
Вы не можете голосовать в опросах
Вы не можете прикреплять файлы к сообщениям
Вы не можете скачивать файлы

!ВНИМАНИЕ!
Сайт не предоставляет электронные версии произведений, а занимается лишь коллекционированием и каталогизацией ссылок, присылаемых и публикуемых на форуме нашими читателями. Если вы являетесь правообладателем какого-либо представленного материала и не желаете, чтобы ссылка на него находилась в нашем каталоге, свяжитесь с нами, и мы незамедлительно удалим ее. Файлы для обмена на трекере предоставлены пользователями сайта, и администрация не несет ответственности за их содержание. Просьба не заливать файлы, защищенные авторскими правами, а также файлы нелегального содержания!