[ Сегодня идет свободное скачивание без начисления Download ]


Статистика раздачи
Нет
 
   
 
Top  
 
 
Название: Шестой альбом
Исполнитель: Бутырка
Год: 2009
Жанр: Шансон
Страна: Россия
Продолжительность: 00:50:43
Формат/Кодек: FLAC (image+.cue)
Битрейт аудио: Lossless

Трек-лист

01. Чечёточка
02. Временно
03. Гулял сентябрь
04. Твоё тепло
05. Пересылочки
06. Качегарка
07. Поезда (дуэт с Яной Павловой)
08. Осень в золоте (дуэт с Александром Вестовым)
09. Весточка (ремикс)
10. Девчонка с центра (ремикс)
11. Пули-дни (Михаил Бородин и гр. "Алиби")
12. Не воровал (Михаил Бородин и гр. "Алиби")

Log

Exact Audio Copy V1.0 beta 3 from 29. August 2011
Отчёт EAC об извлечении, выполненном 12. мая 2013, 15:41
гр. Бутырка / Шестой альбом
Дисковод: HL-DT-STDVDRAM GE20NU11 Adapter: 3 ID: 0
Режим чтения : Достоверность
Использование точного потока : Да
Отключение кэша аудио : Да
Использование указателей C2 : Нет
Коррекция смещения при чтении : 667
Способность читать области Lead-in и Lead-out : Нет
Заполнение пропущенных сэмплов тишиной : Да
Удаление блоков с тишиной в начале и конце : Нет
При вычислениях CRC использовались нулевые сэмплы : Да
Интерфейс : Встроенный Win32-интерфейс для Win NT/2000
Выходной формат : Пользовательский кодировщик
Выбранный битрейт : 1024 kBit/s
Качество : Высокий
Добавление ID3-тега : Нет
Утилита сжатия : C:Program Files (x86)Exact Audio CopyFLACFLAC.EXE
Дополнительные параметры : -6 -V -T "ARTIST=%artist%" -T "TITLE=%title%" -T "ALBUM=%albumtitle%" -T "DATE=%year%" -T "TRACKNUMBER=%tracknr%" -T "GENRE=%genre%" -T "COMMENT=%comment%" -T "BAND=%albuminterpret%" -T "ALBUMARTIST=%albuminterpret%" -T "COMPOSER=%composer%" %haslyrics%--tag-from-file=LYRICS="%lyricsfile%"%haslyrics% -T "DISCNUMBER=%cdnumber%" -T "TOTALDISCS=%totalcds%" -T "TOTALTRACKS=%numtracks%" %hascover%--picture="%coverfile%"%hascover% %source% -o %dest%
TOC извлечённого CD
Трек | Старт | Длительность | Начальный сектор | Конечный сектор
---------------------------------------------------------------------
1 | 0:00.00 | 3:45.71 | 0 | 16945
2 | 3:45.71 | 5:00.11 | 16946 | 39456
3 | 8:46.07 | 4:25.28 | 39457 | 59359
4 | 13:11.35 | 4:31.73 | 59360 | 79757
5 | 17:43.33 | 4:50.50 | 79758 | 101557
6 | 22:34.08 | 3:05.30 | 101558 | 115462
7 | 25:39.38 | 4:03.15 | 115463 | 133702
8 | 29:42.53 | 5:38.37 | 133703 | 159089
9 | 35:21.15 | 5:28.46 | 159090 | 183735
10 | 40:49.61 | 3:48.33 | 183736 | 200868
11 | 44:38.19 | 3:21.32 | 200869 | 215975
12 | 47:59.51 | 2:43.42 | 215976 | 228242
Характеристики диапазона извлечения и сообщения об ошибках
Выбранный диапазон
Имя файла H:POLIGONгр. Бутырка - Шестой альбом.wav
Пиковый уровень 100.0 %
Скорость извлечения 1.7 X
Качество диапазона 100.0 %
CRC копии E03DB7AF
Копирование... OK
Ошибок не произошло
AccurateRip: сводка
Трек 1 отсутствует в базе данных
Трек 2 отсутствует в базе данных
Трек 3 отсутствует в базе данных
Трек 4 отсутствует в базе данных
Трек 5 отсутствует в базе данных
Трек 6 отсутствует в базе данных
Трек 7 отсутствует в базе данных
Трек 8 отсутствует в базе данных
Трек 9 отсутствует в базе данных
Трек 10 отсутствует в базе данных
Трек 11 отсутствует в базе данных
Трек 12 отсутствует в базе данных
Ни одного трека нет в базе AccurateRip
Конец отчёта
---- CUETools DB Plugin V2.1.3
[CTDB TOCID: MpYznZvc5mqs5Ce7CjSt4mO4Ggw-] found, Submit result: already submitted
[7b6785b4] (1/1) Accurately ripped
==== Контрольная сумма отчёта 5FD73AF8B331C0F4A7E2AD2A8383B901B1E79A42DCD33674E169AC89E5DC9368 ====

[Цитировать]



Показать сообщения:    

Текущее время: 09-Дек 20:25

Часовой пояс: UTC + 3


Вы не можете начинать темы
Вы не можете отвечать на сообщения
Вы не можете редактировать свои сообщения
Вы не можете удалять свои сообщения
Вы не можете голосовать в опросах
Вы не можете прикреплять файлы к сообщениям
Вы не можете скачивать файлы

!ВНИМАНИЕ!
Сайт не предоставляет электронные версии произведений, а занимается лишь коллекционированием и каталогизацией ссылок, присылаемых и публикуемых на форуме нашими читателями. Если вы являетесь правообладателем какого-либо представленного материала и не желаете, чтобы ссылка на него находилась в нашем каталоге, свяжитесь с нами, и мы незамедлительно удалим ее. Файлы для обмена на трекере предоставлены пользователями сайта, и администрация не несет ответственности за их содержание. Просьба не заливать файлы, защищенные авторскими правами, а также файлы нелегального содержания!