[ Сегодня идет свободное скачивание без начисления Download ]


Статистика раздачи
Нет
 
   
 
Top  
 
 
-Примесь / Upstream Color (2013) BDRip-- Русское название: Примесь
Оригинальное название: Upstream Color
Год выпуска: 2013
Страна: США | ERBP
Жанр: Драма, Фантастика-Описание фильма:
Мужчина и женщина сближаются друг с другом, запутавшись в жизненном цикле нестареющего организма.
-Режиссер: Шэйн Кэррат
Актеры: Эми Сейметц, Шэйн Кэррат, Эндрю Сенсениг, Тьяго Мартинс, Кэти Кэррат, Мередит Бурк, Андреон Уотсон, Эштон Мирамонтес, Майлс МакГи, Фрэнк Мосли ...
Продолжительность: 01:36:02
Перевод: Одноголосый закадровый
Язык субтитров: английские
Вид субтитров: вшитые отключаемые

Дата мировой премьеры: 21 января 2013
Дата выхода DVD релиза: нет информации
Видеокодек: MPEG-4 AVC/H.264
Битрейт видео: ~5004 Kbps
Размер кадра: 1280*544
Качество видео: BDRip 720p
Аудиокодек: AC3 5.1
Аудио #1: 448 Kbps, русский
Аудио #2: 640 Kbps, английский
Главы сохранены

MediaInfo:

General
Unique ID                                : 197686882548537113341887237562761214222 (0x94B91BD1E1855DBA83F69985E597F90E)
Complete name                            : :\\Primes' (2013).BDRip 720p.mkv
Format                                   : Matroska
Format version                           : Version 2
File size                                : 4.09 GiB
Duration                                 : 1h 36mn
Overall bit rate                         : 6 093 Kbps
Movie name                               : Upstream.Color (2013).BDRip 720p.mkv
Encoded date                             : UTC 2013-05-17 16:41:36
Writing application                      : mkvmerge v5.8.0 ('No Sleep / Pillow') built on Sep  2 2012 15:37:04
Writing library                          : libebml v1.2.3 + libmatroska v1.3.0
Video
ID                                       : 1
Format                                   : AVC
Format/Info                              : Advanced Video Codec
Format profile                           : [url=mailto:High@L4.1]High@L4.1[/url]
Format settings, CABAC                   : Yes
Format settings, ReFrames                : 5 frames
Muxing mode                              : Header stripping
Codec ID                                 : V_MPEG4/ISO/AVC
Duration                                 : 1h 36mn
Bit rate                                 : 5 004 Kbps
Width                                    : 1 280 pixels
Height                                   : 544 pixels
Display aspect ratio                     : 2.35:1
Frame rate mode                          : Constant
Frame rate                               : 23.976 fps
Color space                              : YUV
Chroma subsampling                       : 4:2:0
Bit depth                                : 8 bits
Scan type                                : Progressive
Bits/(Pixel*Frame)                       : 0.300
Stream size                              : 3.28 GiB (80%)
Title                                    : Upstream.Color (2013).BDRip 720p (VO)
Writing library                          : x264 core 129 r2245 bc13772
Encoding settings                        : cabac=1 / ref=5 / deblock=1:0:0 / analyse=0x3:0x113 / me=umh / subme=8 / psy=1 / psy_rd=1.00:0.00 / mixed_ref=1 / me_range=16 / chroma_me=1 / trellis=1 / 8x8dct=1 / cqm=0 / deadzone=21,11 / fast_pskip=1 / chroma_qp_offset=-2 / threads=12 / lookahead_threads=2 / sliced_threads=0 / nr=0 / decimate=1 / interlaced=0 / bluray_compat=0 / constrained_intra=0 / bframes=3 / b_pyramid=2 / b_adapt=2 / b_bias=0 / direct=3 / weightb=1 / open_gop=0 / weightp=2 / keyint=240 / keyint_min=24 / scenecut=40 / intra_refresh=0 / rc_lookahead=50 / rc=2pass / mbtree=1 / bitrate=5004 / ratetol=1.0 / qcomp=0.60 / qpmin=0 / qpmax=69 / qpstep=4 / cplxblur=20.0 / qblur=0.5 / ip_ratio=1.40 / aq=1:1.00
Language                                 : English
Default                                  : Yes
Forced                                   : Yes
Audio #1
ID                                       : 2
Format                                   : AC-3
Format/Info                              : Audio Coding 3
Mode extension                           : CM (complete main)
Format settings, Endianness              : Big
Muxing mode                              : Header stripping
Codec ID                                 : A_AC3
Duration                                 : 1h 36mn
Bit rate mode                            : Constant
Bit rate                                 : 448 Kbps
Channel(s)                               : 6 channels
Channel positions                        : Front: L C R, Side: L R, LFE
Sampling rate                            : 48.0 KHz
Bit depth                                : 16 bits
Compression mode                         : Lossy
Stream size                              : 308 MiB (7%)
Title                                    : AC3 5.1 @ 448 kbps Rus (Andi)
Language                                 : Russian
Default                                  : Yes
Forced                                   : Yes
Audio #2
ID                                       : 3
Format                                   : AC-3
Format/Info                              : Audio Coding 3
Mode extension                           : CM (complete main)
Format settings, Endianness              : Big
Muxing mode                              : Header stripping
Codec ID                                 : A_AC3
Duration                                 : 1h 36mn
Bit rate mode                            : Constant
Bit rate                                 : 640 Kbps
Channel(s)                               : 6 channels
Channel positions                        : Front: L C R, Side: L R, LFE
Sampling rate                            : 48.0 KHz
Bit depth                                : 16 bits
Compression mode                         : Lossy
Stream size                              : 440 MiB (11%)
Title                                    : eng AC3 5.1 @ 640 kbps
Language                                 : English
Default                                  : No
Forced                                   : No
Text #1
ID                                       : 4
Format                                   : UTF-8
Codec ID                                 : S_TEXT/UTF8
Codec ID/Info                            : UTF-8 Plain Text
Language                                 : English
Default                                  : Yes
Forced                                   : No
Text #2
ID                                       : 5
Format                                   : UTF-8
Codec ID                                 : S_TEXT/UTF8
Codec ID/Info                            : UTF-8 Plain Text
Title                                    : SDH
Language                                 : English
Default                                  : No
Forced                                   : No
Menu
00:00:00.000                             : en:00:00:00.000
00:07:34.204                             : en:00:07:34.204
00:15:54.370                             : en:00:15:54.370
00:25:48.255                             : en:00:25:48.255
00:33:53.406                             : en:00:33:53.406
00:41:44.752                             : en:00:41:44.752
00:50:50.673                             : en:00:50:50.673
00:59:08.962                             : en:00:59:08.962
01:10:05.284                             : en:01:10:05.284
01:14:58.744                             : en:01:14:58.744
01:22:23.230                             : en:01:22:23.230
01:29:08.635                             : en:01:29:08.635
Скриншоты: Время раздачи: 24/7 до 3-х скачавших

[Цитировать]



Показать сообщения:    

Текущее время: 09-Дек 03:05

Часовой пояс: UTC + 3


Вы не можете начинать темы
Вы не можете отвечать на сообщения
Вы не можете редактировать свои сообщения
Вы не можете удалять свои сообщения
Вы не можете голосовать в опросах
Вы не можете прикреплять файлы к сообщениям
Вы не можете скачивать файлы

!ВНИМАНИЕ!
Сайт не предоставляет электронные версии произведений, а занимается лишь коллекционированием и каталогизацией ссылок, присылаемых и публикуемых на форуме нашими читателями. Если вы являетесь правообладателем какого-либо представленного материала и не желаете, чтобы ссылка на него находилась в нашем каталоге, свяжитесь с нами, и мы незамедлительно удалим ее. Файлы для обмена на трекере предоставлены пользователями сайта, и администрация не несет ответственности за их содержание. Просьба не заливать файлы, защищенные авторскими правами, а также файлы нелегального содержания!