[ Сегодня идет свободное скачивание без начисления Download ]


Статистика раздачи
Нет
 
   
 
Top  
 
 
-Медсестра в военной палате / L'infermiera nella corsia dei militari (1979) DVDRip [H.264] - Русское название: Медсестра в военной палате
Оригинальное название: L'infermiera nella corsia dei militari
Год выпуска: 1979
Жанр: Комедия
Страна: Италия
Производство: Devon Film
Описание фильма:
В психиатрической клинике, появляется новая медсестра, которая сразу же привлекает к себе пристальное внимание, как со стороны пациентов, так и со стороны руководства (хозяина) клиники. На самом деле она никакая не медсестра, а в клинику ее привел поиск украденных картин, которые якобы спрятаны в этом месте.
Надя Кассини и Лино Банфи в «детективной» комедии с элементами лёгкой эротики.
Режиссер: Мариано Лауренти
Сценарий: Франческо Милиция, Мариано Лауренти
Актеры: Надя Кассини, Лино Банфи, Паоло Джусти, Карин Шуберт, Элио Дзамуто, Карло Спозито, Ренато Кортези, Марселло Мартана, Джино Паньяни, Эрмелинда Де Феличе, Энцо Андронико, Кармен Руссо, Джимми иль Феномено, Луиджи Уццо, Виттория Ди Сильверио, Лучио Монтанаро, Альваро Витали
Продолжительность: 01:25:42
Перевод: Одноголосый закадровый
Субтитры: Отсутствуют

Дата мировой премьеры: 27 ноября 1979
Видеокодек: MPEG-4 AVC/H.264
Битрейт видео: ~2055 Кбит/сек
Размер кадра: 720x400
Качество видео: DVDRip-AVC
Аудиокодек: AC3 2.0
Битрейт аудио: 192 kbps

MediaInfo:

General
Unique ID : 227255306602652952703215328631019220411 (0xAAF7C7AE20249584847C88026C7B2DBB)
Complete name : H:\Downloads\Медсестра в военной палате.mkv
Format : Matroska
Format version : Version 4 / Version 2
File size : 1.35 GiB
Duration : 1h 25mn
Overall bit rate : 2 248 Kbps
Encoded date : UTC 2013-05-06 09:01:35
Writing application : mkvmerge v6.0.0 ('Coming Up For Air') built on Jan 20 2013 09:52:00
Writing library : libebml v1.3.0 + libmatroska v1.4.0
Video
ID : 1
Format : AVC
Format/Info : Advanced Video Codec
Format profile : High@L3.1
Format settings, CABAC : Yes
Format settings, ReFrames : 8 frames
Codec ID : V_MPEG4/ISO/AVC
Duration : 1h 25mn
Bit rate : 2 055 Kbps
Width : 720 pixels
Height : 400 pixels
Display aspect ratio : 16:9
Frame rate mode : Constant
Frame rate : 25.000 fps
Color space : YUV
Chroma subsampling : 4:2:0
Bit depth : 8 bits
Scan type : Progressive
Bits/(Pixel*Frame) : 0.285
Stream size : 1.20 GiB (89%)
Title : L' Infermiera Nella Corsia Dei Militari
Writing library : x264 core 125 r2208 d9d2288
Encoding settings : cabac=1 / ref=8 / deblock=1:-1:-1 / analyse=0x3:0x133 / me=umh / subme=9 / psy=1 / psy_rd=1.00:0.10 / mixed_ref=1 / me_range=32 / chroma_me=1 / trellis=2 / 8x8dct=1 / cqm=0 / deadzone=21,11 / fast_pskip=0 / chroma_qp_offset=-3 / threads=6 / lookahead_threads=1 / sliced_threads=0 / nr=0 / decimate=1 / interlaced=0 / bluray_compat=0 / constrained_intra=0 / bframes=3 / b_pyramid=2 / b_adapt=2 / b_bias=0 / direct=3 / weightb=1 / open_gop=0 / weightp=2 / keyint=250 / keyint_min=25 / scenecut=40 / intra_refresh=0 / rc_lookahead=60 / rc=2pass / mbtree=1 / bitrate=2055 / ratetol=1.0 / qcomp=0.60 / qpmin=10 / qpmax=51 / qpstep=4 / cplxblur=20.0 / qblur=0.5 / ip_ratio=1.40 / aq=1:1.00
Language : Italian
Default : Yes
Forced : No
Audio
ID : 2
Format : AC-3
Format/Info : Audio Coding 3
Mode extension : CM (complete main)
Format settings, Endianness : Big
Codec ID : A_AC3
Duration : 1h 25mn
Bit rate mode : Constant
Bit rate : 192 Kbps
Channel(s) : 2 channels
Channel positions : Front: L R
Sampling rate : 48.0 KHz
Bit depth : 16 bits
Compression mode : Lossy
Stream size : 118 MiB (9%)
Title : Одноголосый закадровый
Language : Russian
Default : Yes
Forced : No
Скриншоты: Время раздачи: с 13:00 до 01:00 по Москве (выходные круглосуточно), до 10 скачавших

[Цитировать]



Показать сообщения:    

Текущее время: 10-Дек 04:13

Часовой пояс: UTC + 3


Вы не можете начинать темы
Вы не можете отвечать на сообщения
Вы не можете редактировать свои сообщения
Вы не можете удалять свои сообщения
Вы не можете голосовать в опросах
Вы не можете прикреплять файлы к сообщениям
Вы не можете скачивать файлы

!ВНИМАНИЕ!
Сайт не предоставляет электронные версии произведений, а занимается лишь коллекционированием и каталогизацией ссылок, присылаемых и публикуемых на форуме нашими читателями. Если вы являетесь правообладателем какого-либо представленного материала и не желаете, чтобы ссылка на него находилась в нашем каталоге, свяжитесь с нами, и мы незамедлительно удалим ее. Файлы для обмена на трекере предоставлены пользователями сайта, и администрация не несет ответственности за их содержание. Просьба не заливать файлы, защищенные авторскими правами, а также файлы нелегального содержания!