[ Сегодня идет свободное скачивание без начисления Download ]


Статистика раздачи
Нет
 
   
 
Top  
 
 
-Лицеистка / La liceale (1975) DVDRip- Русское название: Лицеистка
Оригинальное название: La liceale
Выпущено: Италия | Dania Film
Год выпуска: 1975
Жанр: Комедия
В фильме присутствуют эротические сцены
Описание фильма:
Лоредана — куколка-старшеклассница, которую хотят все, однако девушка играет ими как кошка с мышами. Но случайная встреча со взрослым галантным, немного старомодным мужчиной заставляет Лоредану измениться. Она проводит в его компании несколько чудесных дней, дарит ему свою девственность и строит планы уехать с ним из надоевшего города. Но разве можно доверять командировочному, даже если он клянется в вечной любви?
Бонус:
В качестве бонуса идет фильм о фильме но только, к сожалению, только на итальянском языке
Режиссер: Мишель Массимо Тарантини
Актеры: Глория Гвида, Джузеппе Памбьери, Джанфранко Д’Анджело, Джизелла Софио, Родольфо Биготти, Альваро Витали, Анджела Дориа, Илона Шталлер, Франко Диоджене, Марселло Мартана
Продолжительность: 01:30:40
Перевод: Одноголосый закадровый

Дата мировой премьеры: 31 октября 1975
Видеокодек: AVC
Битрейт видео: ~2000 kb/s
Размер кадра: 718 x 440
Качество видео: DVDRip-AVC
Аудио 1: 48 kHz, AC3 Dolby Digital, 2 ch, ~192 kbps
Аудио 2: 48 kHz, AC3 Dolby Digital, 2 ch, ~192 kbps

MediaInfo

General
Unique ID : 198059435696848533970614962546995577080 (0x9500DC1BB3BA2A7FB0849A5337DF40F8)
Complete name : D:\Downloads\La liceale\La liceale.mkv
Format : Matroska
Format version : Version 2
File size : 1.51 GiB
Duration : 1h 30mn
Overall bit rate : 2 386 Kbps
Encoded date : UTC 2012-10-21 22:41:23
Writing application : mkvmerge v4.0.0 ('The Stars were mine') сборка от Jun 6 2010 16:18:42
Writing library : libebml v1.0.0 + libmatroska v1.0.0
Video
ID : 1
Format : AVC
Format/Info : Advanced Video Codec
Format profile : Main@L3.0
Format settings, CABAC : Yes
Format settings, ReFrames : 4 frames
Codec ID : V_MPEG4/ISO/AVC
Bit rate : 2 000 Kbps
Width : 718 pixels
Height : 440 pixels
Display aspect ratio : 2.35:1
Original display aspect ratio : 2.35:1
Frame rate mode : Variable
Color space : YUV
Chroma subsampling : 4:2:0
Bit depth : 8 bits
Scan type : Progressive
Writing library : x264 core 120
Encoding settings : cabac=1 / ref=1 / deblock=1:0:0 / analyse=0x1:0x111 / me=hex / subme=2 / psy=1 / psy_rd=1.00:0.00 / mixed_ref=0 / me_range=16 / chroma_me=1 / trellis=0 / 8x8dct=0 / cqm=0 / deadzone=21,11 / fast_pskip=1 / chroma_qp_offset=0 / threads=3 / sliced_threads=0 / nr=0 / decimate=1 / interlaced=0 / bluray_compat=0 / constrained_intra=0 / bframes=3 / b_pyramid=2 / b_adapt=1 / b_bias=0 / direct=1 / weightb=1 / open_gop=0 / weightp=1 / keyint=250 / keyint_min=25 / scenecut=40 / intra_refresh=0 / rc_lookahead=10 / rc=2pass / mbtree=1 / bitrate=2000 / ratetol=1.0 / qcomp=0.60 / qpmin=3 / qpmax=69 / qpstep=4 / cplxblur=20.0 / qblur=0.5 / ip_ratio=1.40 / aq=1:1.00
Language : English
Default : Yes
Forced : No
Color primaries : BT.601 NTSC
Transfer characteristics : BT.709
Matrix coefficients : BT.601
Audio #1
ID : 2
Format : AC-3
Format/Info : Audio Coding 3
Mode extension : CM (complete main)
Format settings, Endianness : Big
Codec ID : A_AC3
Duration : 1h 30mn
Bit rate mode : Constant
Bit rate : 192 Kbps
Channel(s) : 2 channels
Channel positions : Front: L R
Sampling rate : 48.0 KHz
Bit depth : 16 bits
Compression mode : Lossy
Stream size : 125 MiB (8%)
Title : Russian
Language : Russian
Default : Yes
Forced : No
Audio #2
ID : 3
Format : AC-3
Format/Info : Audio Coding 3
Mode extension : CM (complete main)
Format settings, Endianness : Big
Codec ID : A_AC3
Duration : 1h 30mn
Bit rate mode : Constant
Bit rate : 192 Kbps
Channel(s) : 2 channels
Channel positions : Front: L R
Sampling rate : 48.0 KHz
Bit depth : 16 bits
Compression mode : Lossy
Stream size : 125 MiB (8%)
Title : Italian
Language : Italian
Default : No
Forced : No
Скриншоты:

Время раздачи: 19:00 - 1:00

[Цитировать]



Показать сообщения:    

Текущее время: 09-Дек 05:03

Часовой пояс: UTC + 3


Вы не можете начинать темы
Вы не можете отвечать на сообщения
Вы не можете редактировать свои сообщения
Вы не можете удалять свои сообщения
Вы не можете голосовать в опросах
Вы не можете прикреплять файлы к сообщениям
Вы не можете скачивать файлы

!ВНИМАНИЕ!
Сайт не предоставляет электронные версии произведений, а занимается лишь коллекционированием и каталогизацией ссылок, присылаемых и публикуемых на форуме нашими читателями. Если вы являетесь правообладателем какого-либо представленного материала и не желаете, чтобы ссылка на него находилась в нашем каталоге, свяжитесь с нами, и мы незамедлительно удалим ее. Файлы для обмена на трекере предоставлены пользователями сайта, и администрация не несет ответственности за их содержание. Просьба не заливать файлы, защищенные авторскими правами, а также файлы нелегального содержания!