[ Сегодня идет свободное скачивание без начисления Download ]


Статистика раздачи
Нет
 
   
 
Top  
 
 
-Запретное царство / The Forbidden Kingdom (2008) BDRip
«Неизведанный путь, неизвестная страна, невероятное приключение»
- Русское название: Запретное царство
Оригинальное название: The Forbidden Kingdom
Год выпуска: 2008
Страна: США , Китай
Жанр: Фэнтези, Боевик, Мелодрама, Приключения-Режиссер: Роб Минкофф
Продюсер: Кэйси Сильвер, Най Лианг Чи, Солон Со
Актеры: Джет Ли, Джеки Чан, Майкл Ангарано, Бингбинг Ли, Йифей Лью, Хуана Коллиньон, Морган Бенуа, Джек Пособец, Томас МакДонелл, Жи Ма Гуи-Продолжительность: 01:44:26
Перевод: Дублированный, Многоголосый (2 вида), Одноголосый
Язык субтитров: Русские, Английские
Вид субтитров: Вшитые, отключаемые
Описание фильма:
Американский подросток Джейсон, основательно помешанный на кунг-фу во всех его проявлениях, от самого спорта до фильмов про него, делает удивительное открытие: в одном из магазинчиков в китайском квартале он находит легендарный посох великого воина Царя Обезьян…
Дата мировой премьеры: 4 апреля 2008
Дата российской премьеры: 24 апреля 2008, «Top Film Distribution»
Дата выхода DVD релиза: 15 мая 2008, «CP-Digital»-
Качество видео: BDRip
Контейнер: MKV
Видеокодек: MPEG-4 AVC/H.264
Аудиокодек: AC-3, DTS
Видео: 1920x800, 23.976 fps, ~15,0 mb/s
Аудио 1: Русский, DTS, 1510 kbps, 6 каналов, 24 bit, (L, C, R, l, r) + LFE - Дублированный
Аудио 2: Русский, DTS, 755 kbps, 6 каналов, 24 bit, (L, C, R, l, r) + LFE - Многоголосый (С.Р.И.)
Аудио 3: Русский, AC-3, 448 kbps, 6 каналов, 16 bit, (L, C, R, l, r) + LFE - Многоголосый (SuperBit)
Аудио 4: Русский, DTS, 1510 kbps, 6 каналов, 24 bit, (L, C, R, l, r) + LFE - Одноголосый (Немахов)
Аудио 5: Английский, DTS, 1510 kbps, 6 каналов, 24 bit, (L, C, R, l, r) + LFE - Оригинал

MediaInfo

Формат : Matroska
Версия формата : Version 2
Размер файла : 15,1 Гбайт
Продолжительность : 1 ч. 44 м.
Общий поток : 20,7 Мбит/сек
Название фильма : Запретное царство / The Forbidden Kingdom (2008) BDRip
Дата кодирования : UTC 2012-06-05 14:02:38
Программа кодирования : mkvmerge v5.6.0 ('Kenya Kane') built on May 27 2012 16:44:04
Библиотека кодирования : libebml v1.2.3 + libmatroska v1.3.0
Видео
Идентификатор : 1
Формат : AVC
Формат/Информация : Advanced Video Codec
Профиль формата : High@L4.1
Параметр CABAC формата : Да
Параметр ReFrames формата : 5 кадров
Идентификатор кодека : V_MPEG4/ISO/AVC
Продолжительность : 1 ч. 44 м.
Битрейт : 15,0 Мбит/сек
Ширина : 1920 пикселей
Высота : 800 пикселей
Соотношение сторон : 2,40:1
Частота кадров : 23,976 кадра/сек
Цветовое пространство : YUV
Субдискретизация насыщенности : 4:2:0
Битовая глубина : 8 бит
Тип развёртки : Прогрессивная
Бит/(Пиксели*Кадры) : 0.407
Размер потока : 10,6 Гбайт (70%)
Заголовок : 51% of the original
Библиотека кодирования : x264 core 125 r2200kMod 999b753
Настройки программы : cabac=1 / ref=5 / deblock=1:-3:-3 / analyse=0x3:0x133 / me=umh / subme=11 / psy=1 / fade_compensate=0.00 / psy_rd=1.15:0.05 / mixed_ref=1 / me_range=64 / chroma_me=1 / trellis=2 / 8x8dct=1 / cqm=0 / deadzone=21,11 / fast_pskip=0 / chroma_qp_offset=-3 / threads=12 / lookahead_threads=2 / sliced_threads=0 / nr=0 / decimate=0 / interlaced=0 / bluray_compat=0 / constrained_intra=0 / bframes=10 / b_pyramid=2 / b_adapt=2 / b_bias=0 / direct=3 / weightb=1 / open_gop=0 / weightp=2 / keyint=240 / keyint_min=23 / scenecut=40 / intra_refresh=0 / rc=2pass / mbtree=0 / bitrate=15005 / ratetol=1.0 / qcomp=0.60 / qpmin=0 / qpmax=69 / qpstep=4 / cplxblur=20.0 / qblur=0.5 / ip_ratio=1.40 / pb_ratio=1.30 / aq=3:0.80 / zones=139711,150240,b=0.25
Язык : English
Default : Да
Forced : Нет
Основные цвета : BT.709-5, BT.1361, IEC 61966-2-4, SMPTE RP177
Характеристики трансфера : BT.709-5, BT.1361
Коэффициенты матрицы : BT.709-5, BT.1361, IEC 61966-2-4 709, SMPTE RP177
Аудио #1
Идентификатор : 2
Формат : DTS
Формат/Информация : Digital Theater Systems
Идентификатор кодека : A_DTS
Продолжительность : 1 ч. 44 м.
Вид битрейта : Постоянный
Битрейт : 1510 Кбит/сек
Каналы : 6 каналов
Расположение каналов : Front: L C R, Side: L R, LFE
Частота : 48,0 КГц
Битовая глубина : 24 бит
Метод сжатия : С потерями
Размер потока : 1,10 Гбайт (7%)
Заголовок : Dub DTS 6ch 1510kbps
Язык : Russian
Default : Да
Forced : Нет
Аудио #2
Идентификатор : 3
Формат : DTS
Формат/Информация : Digital Theater Systems
Идентификатор кодека : A_DTS
Продолжительность : 1 ч. 44 м.
Вид битрейта : Постоянный
Битрейт : 755 Кбит/сек
Каналы : 6 каналов
Расположение каналов : Front: L C R, Side: L R, LFE
Частота : 48,0 КГц
Битовая глубина : 24 бит
Метод сжатия : С потерями
Размер потока : 564 Мбайт (4%)
Заголовок : MVO DTS 6ch 755kbps (С.Р.И.)
Язык : Russian
Default : Нет
Forced : Нет
Аудио #3
Идентификатор : 4
Формат : AC-3
Формат/Информация : Audio Coding 3
Расширение режима : CM (complete main)
Идентификатор кодека : A_AC3
Продолжительность : 1 ч. 44 м.
Вид битрейта : Постоянный
Битрейт : 448 Кбит/сек
Каналы : 6 каналов
Расположение каналов : Front: L C R, Side: L R, LFE
Частота : 48,0 КГц
Битовая глубина : 16 бит
Метод сжатия : С потерями
Размер потока : 335 Мбайт (2%)
Заголовок : MVO AC3 6ch 448kbps (SuperBit)
Язык : Russian
Default : Нет
Forced : Нет
Аудио #4
Идентификатор : 5
Формат : DTS
Формат/Информация : Digital Theater Systems
Идентификатор кодека : A_DTS
Продолжительность : 1 ч. 44 м.
Вид битрейта : Постоянный
Битрейт : 1510 Кбит/сек
Каналы : 6 каналов
Расположение каналов : Front: L C R, Side: L R, LFE
Частота : 48,0 КГц
Битовая глубина : 24 бит
Метод сжатия : С потерями
Размер потока : 1,10 Гбайт (7%)
Заголовок : AVO DTS 6ch 1510kbps (Немахов)
Язык : Russian
Default : Нет
Forced : Нет
Аудио #5
Идентификатор : 6
Формат : DTS
Формат/Информация : Digital Theater Systems
Идентификатор кодека : A_DTS
Продолжительность : 1 ч. 44 м.
Вид битрейта : Постоянный
Битрейт : 1510 Кбит/сек
Каналы : 6 каналов
Расположение каналов : Front: L C R, Side: L R, LFE
Частота : 48,0 КГц
Битовая глубина : 24 бит
Метод сжатия : С потерями
Размер потока : 1,10 Гбайт (7%)
Заголовок : Original DTS 6ch 1510kbps
Язык : English
Default : Нет
Forced : Нет
Текст #1
Идентификатор : 7
Формат : UTF-8
Идентификатор кодека : S_TEXT/UTF8
Идентификатор кодека/Информация : UTF-8 Plain Text
Язык : Russian
Default : Нет
Forced : Нет
Текст #2
Идентификатор : 8
Формат : UTF-8
Идентификатор кодека : S_TEXT/UTF8
Идентификатор кодека/Информация : UTF-8 Plain Text
Язык : English
Default : Нет
Forced : Нет
Меню
00:00:00.000 : en:1.
00:08:36.432 : en:2.
00:15:04.903 : en:3.
00:19:13.152 : en:4.
00:27:29.856 : en:5.
00:36:53.586 : en:6.
00:45:04.660 : en:7.
00:50:27.524 : en:8.
00:54:06.952 : en:9.
00:59:50.670 : en:10.
01:04:47.258 : en:11.
01:09:44.597 : en:12.
01:14:07.651 : en:13.
01:21:14.536 : en:14.
01:28:23.423 : en:15.
01:32:19.158 : en:16.
Скриншоты: Не забудь сказать - Всем приятного просмотра!!!Время раздачи: 24/7 до 5 сидов

[Цитировать]



Показать сообщения:    

Текущее время: 09-Дек 08:55

Часовой пояс: UTC + 3


Вы не можете начинать темы
Вы не можете отвечать на сообщения
Вы не можете редактировать свои сообщения
Вы не можете удалять свои сообщения
Вы не можете голосовать в опросах
Вы не можете прикреплять файлы к сообщениям
Вы не можете скачивать файлы

!ВНИМАНИЕ!
Сайт не предоставляет электронные версии произведений, а занимается лишь коллекционированием и каталогизацией ссылок, присылаемых и публикуемых на форуме нашими читателями. Если вы являетесь правообладателем какого-либо представленного материала и не желаете, чтобы ссылка на него находилась в нашем каталоге, свяжитесь с нами, и мы незамедлительно удалим ее. Файлы для обмена на трекере предоставлены пользователями сайта, и администрация не несет ответственности за их содержание. Просьба не заливать файлы, защищенные авторскими правами, а также файлы нелегального содержания!