[ Сегодня идет свободное скачивание без начисления Download ]


Статистика раздачи
Нет
 
   
 
Top  
 
 
-Супермен. Антология (1978-2006)- Русское название: Супермен: Антология
Оригинальное название: The Superman: Anthology
Производство: Dovemead Films, Warner Bros. Pictures / США, Канада, Великобритания
Год выпуска: 1978-2006
Жанр: фантастика, фэнтези, боевик, мелодрама, приключения, семейный-Перевод: Дублированный, многоголосый закадровый, двухголосый закадровый.
Язык субтитров: русский, английский-Описание фильма:
«Супермен» — художественный фильм, экранизация комикса DC Comics о cупергерое.
Космическая катастрофа уничтожила всё живое на планете Криптон. Уцелел только один ребёнок — сын учёного Джор-Эла, отправленный в специальной капсуле на Землю. Мальчик приземлился на Земле, его подобрали фермеры, на которых он произвёл впечатление. Он стал членом семьи, воспитывался как обыкновенный ребёнок. Но вырос он в сверхчеловека — Супермена, сторонника добра и справедливости, обладателя огромной силы, всеобъемлющих знаний и способности летать. Однако его родители запрещали ему использовать силу на людях, так что герой прячется под личиной скромного клерка. Лишь по вечерам он превращается в Супермена, очаровывая свою возлюбленную полётами над ночным городом.-Эпизоды:
- Супермен
- Супермен II
- Супермен III
- Супермен IV: В поисках мира
- Возвращение Супермена-Режиссер: Ричард Доннер, Ричард Лестер, Сидни Дж. Фьюри, Брайан Сингер
Актеры: Марлон Брандо, Джин Хэкмен, Кристофер Рив, Нед Битти, Джеки Купер, Гленн Форд, Тревор Ховард, Марго Киддер, Джек О`Халлоран, Валери Перрин, Мария Шелл, Теренс Стэмп, Сюзанна Йорк, Джефф Ист, Марк МакКлюр, Сара Дуглас, Гарри Эндрюс, Джон Холлис, Брэндон Рут, Кейт Босворт, Кевин Спейси, Джеймс Мэрсден и др.-Продолжительность: 02:31:25 (Superman) | 02:07:29 (Superman II) | 02:04:56 (Superman III) | 01:29:52 (Superman IV) | 02:34:19 (Superman Returns)
--Супермен / Superman (1978) BDRemux- -Русское название: Супермен
Оригинальное название: Superman
Производство: Dovemead Films, Film Export A.G. / Великобритания
Год выпуска: 1978
Жaнр: Фантастика, Приключения-Oписание фильма:
Цивилизации планеты Криптон стоит на грани гибели. Ученый Йор-Ел, чтобы спасти своему ребенку жизнь, отправляет его на Землю. Маленький мальчик вырастает и открывает в себе неземные возможности. Он Супермен. Огромная сила и способность летать помогают ему в борьбе с любым проявлением зла. И когда коварный Лекс Лютер и его приспешники строят планы, угрожающие человечеству, только Супермен может помешать им.-Рeжиссер: Ричард Доннер / Richard Donner
Aктеры: Кристофер Рив / Christopher Reeve, Джин Хэкмэн / Gene Hackman, Марго Киддер / Margot Kidder, Марлон Брандо / Marlon Brando, Джеки Купер / Jackie Cooper, Нед Битти / Ned Beat-Прoдолжительность: 02:31:25
Пeревод: Профессиональный (многоголосый закадровый)
Оригинальная аудиодорожка: английский
Язык cубтитров: Отсутствует- -Видеокодек: VC-1
Битрейт видео: ~17,7 Мбит/сек
Размер кадра: 1920x1080p
Качество видео: BDRemux 1080p-Аудио 1: Русский АС3 / 5.1 ~ 384 Kbps
Аудио 2: Английский AC3 / 5.1 ~ 640 kbps
-

Рецензия, отзыв о фильме

Знаете ли вы, что...
Стивен Спилберг мог возглавить работу над картиной, однако продюсеры не смогли договориться о гонораре режиссера. Тогда продюсерский штаб картины принял решение выждать и вернуться к переговорам после выхода в прокат «рыбной картины» Стивена (Челюсти). Как мы помним, фильм стал настоящим хитом и Стивен предпочел поработать над другими проектами.
В свою очередь, режиссером картины мог стать Гай Хэмилтон (кинодеятель подписал соответствующий контракт). Однако когда выяснилось, что часть съемок пройдет в Англии, Гаю пришлось покинуть проект. Будучи налоговым эмигрантом, Гай имел право находиться в Англии не более 30 суток ежегодно.
Кому только не прочили роль Супермена. Ниже представлен список кандидатов: Пол Ньюман, Роберт Редфорд, Арнольд Шварценнегер, Сильвестр Сталлоне, Чарльз Бронсон, Патрик Уэйн, Уоррен Битти, Берт Рейнольдс и даже Клинт Иствуд. В конечном итоге было принято решение взять на эту роль малоизвестного актера Кристофера Рива. Перед началом съемок в послужном списке актера числился всего один фильм и участие в телесериале. Любопытно, что точно такой же подход был использован и в 2005 году, когда на роль Супермена был утвержден актер-новичок Брэндон Рут.
Учитывая тот факт, что имя Кристофера Рива посетителям кинотеатров было незнакомо, в трейлерах к фильму список исполнителей главных ролей начинался с Марлона Брандо и Джина Хекмана, и только после этих громких имен на экране появлялась фамилия Рива.
Список кандидаток на исполнение роли Луис Лэйн был также весьма внушительным. Эту роль могли получить Энн Арчер, Лесли Энн Уоррен, Дебора Раффин, Сюзан Блейкли и Стокард Ченнинг.
Перед началом съемок Кристофер Рив прошел специальный курс по наращиванию мышечной массы с подачи Дэвида Прауза, актера, исполнившего роль Дарта Вейдера в оригинальной трилогии «Звездных войн». Успехи актера на данном поприще были настолько заметны, что Ричарду Доннеру пришлось переснять некоторые сцены, работа над которыми велась в самом начале производственного процесса — слишком уж сильно изменился за это время Кристофер.
Марлон Брандо присутствует в кадре всего 10 минут. Тем не менее, актер получил самый большой гонорар из всех участников проекта — 4 миллиона долларов.
Стоимость создания вступительных титров превышала бюджет многих картин, снимавшихся в то время. В свою очередь длительность титров в конце фильма составила больше 7 минут, тем самым, установив новый рекорд их продолжительности.
Волосы Кларка Кента и Супермена зачесаны в разные стороны.
Кристоферу Риву пришлось озвучить все реплики Джеффа Иста, сыгравшего роль Кларка Кента в детстве.
Большая часть материала к сиквелу «Супермена» снималась одновременно с оригинальной картиной. Незадолго до завершения съемок сиквела, режиссер Ричард Доннер был уволен, а на его место пришел Ричард Лестер, посчитавший должным отснять заново большую часть материала.
Ричард Доннер успел снять некоторое количество сцен, так и не вошедших в окончательную версию сиквела, включая самую знаменитую — диалог Джо-Эля (Марлон Брандо) с Кал-Элем (в ней речь идет о желании Джо-Эля совершить самоубийство, чтобы спасти сына). Кроме того, была отснята сцена, в которой Луис Лэйн пытается проверить, является ли Кларк Кент Суперменом, стреляя в него холостыми патронами.
В качестве композитора картины Ричард Доннер пригласил небезызвестного Джерри Голдсмита, и композитор принял данное приглашение. Однако в ходе производства картины Джерри был вынужден покинуть проект, и его заменил Джон Уильямс. Спустя 6 лет Голдсмиту все-таки удалось поработать над саундтреком к одной из картин френчайза — «Супергерл».
Концовка, в ходе которой Супермен раскручивает планету в обратную сторону (для того, чтобы Луис забыла, кем является Супермен в повседневной жизни), изначально предполагалась в качестве концовки к сиквелу.
Сцена, в которой Джо-Эль объясняет Супермену, почему он должен держать в секрете свою истинную сущность, была удалена из театральной версии картины, но вошла в режиссерское издание.
Во всех четырех фильмах, посвященных Супермену, в концовках используются кадры улетающего в космос Супермена, отснятые еще в рамках производства первой картины.
В работе над картиной было задействовано 18 кинооператоров.
В одной из сцен фильма юный Кларк Кент пинает футбольный мяч и забрасывает его на земную орбиту. Для съемок данной сцены под землю была помещена специальная воздушная пушка, из которой и был запущен футбольный мяч.
Дата 13 июля 1977 года вошла в историю США как одна из самых страшных ночей. В эту ночь Нью-Йорк постигло масштабное отключение электроэнергии, принесшее городу убытков на 300 млн. долларов. Той страшной ночью город погрузился в самый настоящий хаос — на улицах было зафиксированы массовые драки, поджоги, мародеры грабили магазины, копы стреляли по прохожим и т. д. В ту сумасшедшую ночь на улицах Нью-Йорка работала и съемочная бригада «Супермена».
Идея нанесения на одежду Джо-Эля символа «S» (как у Супермена) принадлежала Марлону Брандо.
В документальной ленте, посвященной съемкам «Супермена», Ричард Доннер вспоминает: «Получив первые сведения о будущем проекте, я попытался тут же нанести эту информацию на бумагу. Под рукой оказалась лишь порция визиток, и я записал эти сведения на обратной стороне одной из них». В той же документальной картине зрителям демонстрируют эту визитку, ставшей исторической. При детальном рассмотрении этих записей можно увидеть имя Ника Нолте как одного из потенциальных участников проекта.
Выйдя в прокат в 1978 году, фильм получил статус самой кассовой картины кинокомпании «Warner Bros.» (300 млн. долларов в общемировом прокате).
Первоначально Марлон Брандо предложил вообще не появляться на экране и предоставить лишь свой голос, озвучивающий некий образ в виде левитирующего зеленого бублика. Неизвестно, шутил Брандо или нет, но продюсеры сходу отвергли данное предложение.
В первой версии сценарии в помощниках Лекса Лютера числились сразу два персонажа — Отис и Альберт. Впоследствии персонаж Альберта был ликвидирован.
Сцена полета Супермена и Луис должна была быть представлена в виде полета парочки вокруг Земли, однако впоследствии было принято решение оставить главных героев в пределах города.
Джин Хекман ужасно не хотел расставаться со своими усами для исполнения роли Лекса Лютора. Любопытно, что на самых первых постерах к фильму его усы еще на месте. Ричард Доннер вел долгие переговоры с Хекманом по телефону (не видясь друг с другом), и в итоге уговорил актера сбрить усы при условии, что сам проделает эту же процедуру. Впоследствии Джин узнал, что Ричард Доннер вообще не носил усов.
Отреставрированная версия 2000 года имеет хронометраж 151 минута.
-

Из книги «3500 кинорецензий»

Сергей Кудрявцев 7.5/10
Фантастический комикс
Захватывающая и увлекательная фантазия с элементами комедии, основанная на популярном комиксе о Супермене, или же Стальном человеке, который ещё в младенческом возрасте был отправлен родителями в иную галактику накануне гибели планеты Криптон. Попав на Землю, в Америку, в местечко Смоллтаун (буквально — «маленький городок»), он рос под именем Кларка Кента, пока не узнал о своём космическом происхождении, а потом получил могущество и неуязвимость. Но никто из работающих в редакции газеты в Метрополисе даже не догадывался, что под видом робкого журналиста в очках скрывается благородный и всесильный Супермен. Он готов всегда придти на помощь честным и добрым людям, таким, как красивая девушка Лоис Лейн, и непременно накажет разных подлецов и пройдох — вроде Лекса Лютера.
Помимо замечательных спецэффектов (премия «Оскар»), представляющих фантастическую сторону сюжета, а также хорошего юмора во многих сценах этого комикса привлекает в его стилистике ещё кое-что немаловажное. Прежде всего — то, что история из популярной «книжки с картинками», которая появилась ещё в 30-e годы и неоднократно экранизировалась в кино и на телевидении, очень удачна вписана по ходу развития сюжета в различные времена — от 40-х до 70-х годов, и таким образом максимально приближена к реалиям жизни обычных зрителей. Тем фантастичнее и невероятнее воспринимаются приключения Супермена, который один лишь действительно способен спасти каждого из нас и весь мир в целом от сумасшедших акций всевозможных злодеев.
Неудивительно, что фильм, стоивший солидную по тем временам сумму (теперь бы бюджет $55 млн. составил почти $160 млн.), имел громадный успех в прокате в момент выхода на экран и поныне занимает довольно высокое 60-е место по посещаемости за всю историю американского кино. Следом появились ещё три, менее доходные серии «Супермена» и даже «Супергёрл» — кинокомикс о кузине Стального человека. Кроме того, режиссёры вспомнили о других сказках для детей и взрослых, предложив киноциклы «Звёздный путь» и «Бэтмен» / «Человек — Летучая мышь», а комиксовая структура стала основой для доброй половины популярных американских картин, лидирующих в списке рекордсменов. И спустя почти 30 лет опять возродился интерес к «Супермену» — уже снят «Супермен возвращается» и готовится «Супермен: Стальной человек».
1990/2007
-

Награды и номинации:

Специальный «Оскар» за визуальные эффекты (Лес Боуи, Колин Чилверс, Денис Н. Куп, Рой Филд, Дерек Меддингс, Зоран Перисич — Les Bowie, Colin Chilvers, Denys N. Coop, Roy Field, Derek Meddings, Zoran Perisic).
Сатурн, 2002 год
Номинации (1):

Лучшее DVD-издание классического фильма
Оскар, 1979 год
Победитель (1):

Награда за особые достижения — «за визуальные эффекты»
Номинации (3):
Лучший звук
Лучший монтаж
Лучший оригинальный саундтрек
Золотой глобус, 1979 год
Номинации (1):

Лучший саундтрек
Британская академия, 1979 год
Победитель (1):

Лучший новичок (Кристофер Рив)
Номинации (4):
Лучшая мужская роль второго плана (Джин Хэкмен)
Лучшая работа оператора
Лучшая работа художника-постановщика
Лучший звук
Сатурн, 1979 год
Победитель (5):

Лучший научно-фантастический фильм
Лучшая актриса (Марго Киддер)
Лучшие спецэффекты
Лучшая музыка
Лучшие декорации
Номинации (4):
Лучший режиссер (Ричард Доннер)
Лучший актер (Кристофер Рив)
Лучшая актриса второго плана (Валери Перрайн)
Лучшие костюмы
-

MediaInfo:

General
ID : 1
Complete name : E:\NMN Club\Superman.Anthology\superme 1978.ts
Format : MPEG-TS
File size : 21.3 GiB
Duration : 2h 31mn
Overall bit rate : 20.1 Mbps
Maximum Overall bit rate : 35.5 Mbps
Video
ID : 4113 (0x1011)
Menu ID : 1 (0x1)
Format : VC-1
Format profile : AP@L3
Duration : 2h 31mn
Bit rate : 17.7 Mbps
Width : 1 920 pixels
Height : 1 080 pixels
Display aspect ratio : 16:9
Frame rate : 23.976 fps
Resolution : 8 bits
Colorimetry : 4:2:0
Scan type : Progressive
Bits/(Pixel*Frame) : 0.356
Stream size : 18.7 GiB (88%)
Audio #1
ID : 4352 (0x1100)
Menu ID : 1 (0x1)
Format : AC-3
Format/Info : Audio Coding 3
Duration : 2h 31mn
Bit rate mode : Constant
Bit rate : 384 Kbps
Channel(s) : 6 channels
Channel positions : Front: L C R, Surround: L R, LFE
Sampling rate : 48.0 KHz
Stream size : 416 MiB (2%)
Language : Russian
Audio #2
ID : 4353 (0x1101)
Menu ID : 1 (0x1)
Format : AC-3
Format/Info : Audio Coding 3
Duration : 2h 31mn
Bit rate mode : Constant
Bit rate : 640 Kbps
Channel(s) : 6 channels
Channel positions : Front: L C R, Surround: L R, LFE
Sampling rate : 48.0 KHz
Stream size : 693 MiB (3%)
Language : English
-Скриншоты:
-Супермен 2 / Superman 2 (1980) BDRemux- Русское название: Супермен 2
Оригинальное название: Superman 2
Производство: Dovemead Films / США, Великобритания
Год выпуска: 1980
Жaнр: Фантастика, Приключения-Oписание фильма:
Оказывается, он не единственный уцелевший житель погибшей планеты. На Землю попадают три криптонианина-злодея. Они обладают такими же силами, как и Супермен, и собираются уничтожить человечество. Супермену предстоит сразиться с безжалостными врагами и встретить любовь.-Рeжиссер: Ричард Лестер / Richard Lester
Aктеры: Джин Хэкмен, Кристофер Рив, Нед Битти, Джекки Купер, Сара Дуглас, Марго Киддер, Джек О’Хэллоран, Валери Перрайн, Сюзанна Йорк, Клифтон Джеймс, Э. Г. Маршалл, Марк МакКлюр, Теренс Стэмп, Леуин Уиллогби, Робин Паппас, Роджер Кемп, Роджер Брирли, Энтони Милнер, Ричард Гриффитс, Melissa Wiltsie, Alain Dehay, Марк Бойл, Алан Стюарт, Джон Ратценбергер, Шэйн Риммер, Джон Мортон, Джим Даудэлл, Энгус МакИннес, Энтони Шер, Элва Мэй Хувер, Хэдли Кэй, Тодд Вудкрофт, Джон Холлис, Гордон Роллингс, Питер Уитман, Билл Бэйли, Dinny Powell, Хэл Гэлили, Маркус Д’Амико, Ричард ЛеПарментье, Дон Феллоуз, Майкл Шэннон, Тони Сибболд, Томми Дагган, Памела Манделл, Пеппер Мартин, Юджин Липински, Клеон Спенсер, Карл Паррис, Джек Купер, Жан-Пьер Кассель, Ричард Доннер, Дерек Лайонс, Бет Портер, Joe Praml, Эрик Стайн, Джо Уолш-Пpодолжительность: 02:07:29
Пeревод: 2x Профессиональный (многоголосый, закадровый)
Оригинальная аудиодорожка: английский
Язык cубтитров: русские, английские
Вид субтитров: Вшитые- -Видеокодек: MPEG-4 AVC/H.264
Битрейт видео: ~19971 kbps
Размер кадра: 1920x1080p
Качество видео: BDRemux 1080p-Аудио 1: Русккий AC3 2.0 / 48 kHz / 192 kbps | MVO R5
Аудио 2: Русский AC3 2.0 / 48 kHz / 192 kbps | MVO
Аудио 3: Английский DTS-HD MA / 5.1 / 48 kHz / 3419 kbps / 24-bit (DTS Core: 5.1 / 48 kHz / 1509 kbps / 24-bit)
-

Знаете ли вы, что...

Единственная картина о Супермене, которую сняли два режиссера. В этом заключалась причина конфликта между Ричардом Доннером и Ричардом Лестером. Доннер, по его утверждению, отснял 75% фильма еще в 1977 году, а затем был отстранен от проекта. В 1979 году Лестер доснял остальные сцены и переработал материал Доннера, однако по мнению последнего в финальном монтаже оставалось около 25% отснятых им сцен. В ноябре 2006 года на DVD вышел фильм «Супермен 2: Версия Ричарда Доннера».
Премьера фильма в Европе и Австралии (4 декабря 1980 года) прошла раньше премьеры в США (19 июня 1981 года), что было достаточно необычным решением для проекта такого масштаба.
-

MediaInfo:

General
Complete name : E:\NMN Club\Superman.Anthology\Superman.2.1980.mkv
Format : Matroska
File size : 21.2 GiB
Duration : 2h 7mn
Overall bit rate : 23.8 Mbps
Movie name : Superman.2.1980.1080p.Bluray.AVC.Remux
Encoded date : UTC 2011-06-21 06:13:06
Writing application : mkvmerge v4.8.0 ('I Got The...') сборка от May 24 2011 03:12:58
Writing library : libebml v1.2.0 + libmatroska v1.1.0
Video
ID : 1
Format : AVC
Format/Info : Advanced Video Codec
Format profile : High@L4.1
Format settings, CABAC : Yes
Format settings, ReFrames : 2 frames
Muxing mode : Container profile=Unknown@4.1
Codec ID : V_MPEG4/ISO/AVC
Duration : 2h 7mn
Width : 1 920 pixels
Height : 1 080 pixels
Display aspect ratio : 16:9
Frame rate : 23.976 fps
Resolution : 8 bits
Colorimetry : 4:2:0
Scan type : Progressive
Audio #1
ID : 2
Format : AC-3
Format/Info : Audio Coding 3
Codec ID : A_AC3
Duration : 2h 7mn
Bit rate mode : Constant
Bit rate : 192 Kbps
Channel(s) : 2 channels
Channel positions : L R
Sampling rate : 48.0 KHz
Stream size : 175 MiB (1%)
Title : Пифагор
Language : Russian
Audio #2
ID : 3
Format : AC-3
Format/Info : Audio Coding 3
Codec ID : A_AC3
Duration : 2h 7mn
Bit rate mode : Constant
Bit rate : 192 Kbps
Channel(s) : 2 channels
Channel positions : L R
Sampling rate : 48.0 KHz
Stream size : 175 MiB (1%)
Title : МВО
Language : Russian
Audio #3
ID : 4
Format : DTS
Format/Info : Digital Theater Systems
Format profile : MA
Codec ID : A_DTS
Duration : 2h 7mn
Bit rate mode : Variable
Channel(s) : 6 channels
Channel positions : Front: L C R, Surround: L R, LFE
Sampling rate : 48.0 KHz
Resolution : 24 bits
Text #1
ID : 5
Format : UTF-8
Codec ID : S_TEXT/UTF8
Codec ID/Info : UTF-8 Plain Text
Language : Russian
Text #2
ID : 6
Format : UTF-8
Codec ID : S_TEXT/UTF8
Codec ID/Info : UTF-8 Plain Text
Menu
00:00:00.000 : en:00:00:00.000
00:03:08.522 : en:00:03:08.522
00:08:34.055 : en:00:08:34.055
00:12:18.446 : en:00:12:18.446
00:17:59.412 : en:00:17:59.412
00:22:33.477 : en:00:22:33.477
00:24:44.650 : en:00:24:44.650
00:30:13.520 : en:00:30:13.520
00:33:13.200 : en:00:33:13.200
00:37:14.107 : en:00:37:14.107
00:41:44.961 : en:00:41:44.961
00:46:20.736 : en:00:46:20.736
00:49:44.523 : en:00:49:44.523
00:51:42.433 : en:00:51:42.433
00:54:57.211 : en:00:54:57.211
00:57:57.349 : en:00:57:57.349
00:59:04.708 : en:00:59:04.708
01:01:43.325 : en:01:01:43.325
01:03:43.445 : en:01:03:43.445
01:06:35.033 : en:01:06:35.033
01:10:31.561 : en:01:10:31.561
01:14:42.853 : en:01:14:42.853
01:18:14.315 : en:01:18:14.315
01:21:39.645 : en:01:21:39.645
01:23:31.715 : en:01:23:31.715
01:26:12.834 : en:01:26:12.834
01:29:13.223 : en:01:29:13.223
01:32:23.747 : en:01:32:23.747
01:39:44.520 : en:01:39:44.520
01:41:44.890 : en:01:41:44.890
01:44:13.247 : en:01:44:13.247
01:46:39.893 : en:01:46:39.893
01:50:27.663 : en:01:50:27.663
01:55:38.431 : en:01:55:38.431
02:00:46.281 : en:02:00:46.281
02:02:33.471 : en:02:02:33.471
02:03:19.267 : en:02:03:19.267
-Скриншоты:
-Супермен 3 / Superman 3 (1983) BDRemux- Русское название: Супермен 3
Оригинальное название: Superman 3
Производство: Cantharus Productions / Великобритания, США
Год выпуска: 1983
Жaнр: Фантастика, Приключения-Oписание фильма:
Оператор компьютера дает шанс злодею захватить Супермена…-Pежиссер: Ричард Лестер / Richard Lester
Aктеры: Кристофер Рив, Ричард Прайор, Джекки Купер, Марк МакКлюр, Аннетт О’Тул, Энни Росс, Памела Стивенсон, Роберт Вон, Марго Киддер, Гэвэн О’Херлихи, Нэнси Робертс, Грэм Старк, Генри Вулф, Гордон Роллингс, Питер Веар, Джастин Кейс, Боб Тодд, Терри Камиллери, Стэфан Калифа, Хелен Хортон, Лу Хирш, Билл Рэймбуд,-Пpодолжительность: 02:04:56
Пeревод: Профессиональный (многоголосый, закадровый) СТС
Оригинальная аудиодорожка: английский
Язык cубтитров: английские
Вид субтитров: Вшитые- -Видеокодек: MPEG-4 AVC/H.264
Битрейт видео: ~19940 kbps
Размер кадра: 1920x1080p
Качество видео: BDRemux 1080p-Аудио 1: Русский AC3 / 2.0 / 48 kHz / 192 kbps
Аудио 2: Английский DTS-HD MA / 5.1 / 48 kHz / 3661 kbps / 24-bit (DTS Core: 5.1 / 48 kHz / 1509 kbps / 24-bit)
-

MediaInfo:

General
Complete name : E:\NMN Club\Superman.Anthology\Superman.3.1983.mkv
Format : Matroska
File size : 20.8 GiB
Duration : 2h 4mn
Overall bit rate : 23.8 Mbps
Movie name : Superman.3.1984.1080p.Bluray.AVC.Remux
Encoded date : UTC 2011-06-21 13:39:22
Writing application : mkvmerge v4.8.0 ('I Got The...') сборка от May 24 2011 03:12:58
Writing library : libebml v1.2.0 + libmatroska v1.1.0
Video
ID : 1
Format : AVC
Format/Info : Advanced Video Codec
Format profile : High@L4.1
Format settings, CABAC : Yes
Format settings, ReFrames : 2 frames
Muxing mode : Container profile=Unknown@4.1
Codec ID : V_MPEG4/ISO/AVC
Duration : 2h 4mn
Width : 1 920 pixels
Height : 1 080 pixels
Display aspect ratio : 16:9
Frame rate : 23.976 fps
Resolution : 8 bits
Colorimetry : 4:2:0
Scan type : Progressive
Audio #1
ID : 2
Format : AC-3
Format/Info : Audio Coding 3
Codec ID : A_AC3
Duration : 2h 4mn
Bit rate mode : Constant
Bit rate : 192 Kbps
Channel(s) : 2 channels
Channel positions : L R
Sampling rate : 48.0 KHz
Stream size : 172 MiB (1%)
Language : Russian
Audio #2
ID : 3
Format : DTS
Format/Info : Digital Theater Systems
Format profile : MA
Codec ID : A_DTS
Duration : 2h 4mn
Bit rate mode : Variable
Channel(s) : 6 channels
Channel positions : Front: L C R, Surround: L R, LFE
Sampling rate : 48.0 KHz
Resolution : 24 bits
Text
ID : 4
Format : UTF-8
Codec ID : S_TEXT/UTF8
Codec ID/Info : UTF-8 Plain Text
Title : SDH
Menu
00:00:00.000 : en:00:00:00.000
00:02:34.821 : en:00:02:34.821
00:08:31.010 : en:00:08:31.010
00:12:06.017 : en:00:12:06.017
00:14:31.996 : en:00:14:31.996
00:20:01.158 : en:00:20:01.158
00:21:54.813 : en:00:21:54.813
00:26:31.632 : en:00:26:31.632
00:28:39.801 : en:00:28:39.801
00:30:48.472 : en:00:30:48.472
00:32:48.800 : en:00:32:48.800
00:37:54.105 : en:00:37:54.105
00:39:17.647 : en:00:39:17.647
00:43:59.011 : en:00:43:59.011
00:46:35.501 : en:00:46:35.501
00:51:26.083 : en:00:51:26.083
00:53:45.389 : en:00:53:45.389
00:59:09.588 : en:00:59:09.588
01:02:19.611 : en:01:02:19.611
01:03:19.796 : en:01:03:19.796
01:06:55.386 : en:01:06:55.386
01:09:33.795 : en:01:09:33.795
01:12:47.446 : en:01:12:47.446
01:16:51.357 : en:01:16:51.357
01:23:38.430 : en:01:23:38.430
01:25:56.735 : en:01:25:56.735
01:31:52.966 : en:01:31:52.966
01:34:42.802 : en:01:34:42.802
01:38:28.945 : en:01:38:28.945
01:41:31.877 : en:01:41:31.877
01:43:48.472 : en:01:43:48.472
01:46:28.340 : en:01:46:28.340
01:48:35.676 : en:01:48:35.676
01:50:45.639 : en:01:50:45.639
01:52:58.438 : en:01:52:58.438
01:56:54.549 : en:01:56:54.549
01:58:40.989 : en:01:58:40.989
02:00:04.114 : en:02:00:04.114
02:01:18.271 : en:02:01:18.271
-Скриншоты:
-Супермен 4: В поисках мира / Superman 4: The Quest for Peace (1987) BDRemux- Русское название: Супермен 4: В поисках мира
Оригинальное название: Superman 4: The Quest for Peace
Производство: Cannon Films/ Warner Bros. Pictures / Великобритания, США
Год выпуска: 1987
Жaнр: Фантастика, Приключения-Oписание фильма:
Продолжение экранизации комиксов про Супермена. На этот раз — криптонианцу предстоит уничтожить все ядерное оружие, вознести прелюдию к миру, а также разобраться в своих чувствах и сразиться с очередным противником.-Pежиссер: Сидни Дж. Фьюри / Sidney J. Furie
Aктеры: Кристофер Рив, Джин Хэкмен, Джекки Купер, Марк МакКлюр, Джон Крайер, Сэм Уонамейкер, Марк Пиллоу, Мэриэл Хемингуэй, Марго Киддер, Damian McLawhorn, Уильям Хуткинс, Джим Броудбент, Стэнли Лебор, Дон Феллоуз, Роберт Битти, Брэдли Лэвэлл-Прoдолжительность: 01:29:52
Пeревод: Любительский (одноголосый) antipigo
Оригинальная аудиодорожка: английский
Язык cубтитров: русские, английские
Вид субтитров: Вшитые- -Видеокодек: MPEG-4 AVC/H.264
Битрейт видео: ~19936 kbps
Размер кадра: 1920x1080p
Качество видео: BDRemux 1080p-Аудио 1: Русский АС3 / 2.0 / 48 kHz / 192 kbps
Аудио 2: Английский DTS-HD MA / 2.0 / 48 kHz / 2024 kbps / 24-bit (DTS Core: 2.0 / 48 kHz / 1509 kbps / 24-bit)
-

MediaInfo:

General
Complete name : E:\NMN Club\Superman.Anthology\Superman.4.1987.mkv
Format : Matroska
File size : 13.9 GiB
Duration : 1h 29mn
Overall bit rate : 22.2 Mbps
Movie name : Superman.4.1987.1080p.Bluray.AVC.Remux
Encoded date : UTC 2011-06-21 18:12:44
Writing application : mkvmerge v4.8.0 ('I Got The...') сборка от May 24 2011 03:12:58
Writing library : libebml v1.2.0 + libmatroska v1.1.0
Video
ID : 1
Format : AVC
Format/Info : Advanced Video Codec
Format profile : High@L4.1
Format settings, CABAC : Yes
Format settings, ReFrames : 2 frames
Muxing mode : Container profile=Unknown@4.1
Codec ID : V_MPEG4/ISO/AVC
Duration : 1h 29mn
Width : 1 920 pixels
Height : 1 080 pixels
Display aspect ratio : 16:9
Frame rate : 23.976 fps
Resolution : 8 bits
Colorimetry : 4:2:0
Scan type : Progressive
Title : uralmix
Audio #1
ID : 2
Format : AC-3
Format/Info : Audio Coding 3
Codec ID : A_AC3
Duration : 1h 29mn
Bit rate mode : Constant
Bit rate : 192 Kbps
Channel(s) : 2 channels
Channel positions : L R
Sampling rate : 48.0 KHz
Stream size : 123 MiB (1%)
Language : Russian
Audio #2
ID : 3
Format : DTS
Format/Info : Digital Theater Systems
Format profile : MA
Codec ID : A_DTS
Duration : 1h 29mn
Bit rate mode : Variable
Channel(s) : 2 channels
Channel positions : Front: L, R
Sampling rate : 48.0 KHz
Resolution : 24 bits
Text #1
ID : 4
Format : UTF-8
Codec ID : S_TEXT/UTF8
Codec ID/Info : UTF-8 Plain Text
Language : Russian
Text #2
ID : 5
Format : UTF-8
Codec ID : S_TEXT/UTF8
Codec ID/Info : UTF-8 Plain Text
Title : SDH
Menu
00:00:00.000 : en:00:00:00.000
00:02:50.921 : en:00:02:50.921
00:05:10.977 : en:00:05:10.977
00:07:49.344 : en:00:07:49.344
00:10:06.648 : en:00:10:06.648
00:12:40.301 : en:00:12:40.301
00:14:43.007 : en:00:14:43.007
00:17:40.643 : en:00:17:40.643
00:20:21.762 : en:00:20:21.762
00:24:20.042 : en:00:24:20.042
00:25:44.668 : en:00:25:44.668
00:31:06.281 : en:00:31:06.281
00:33:58.161 : en:00:33:58.161
00:35:53.860 : en:00:35:53.860
00:39:31.953 : en:00:39:31.953
00:42:38.389 : en:00:42:38.389
00:44:57.486 : en:00:44:57.486
00:48:23.359 : en:00:48:23.359
00:54:16.128 : en:00:54:16.128
00:58:17.327 : en:00:58:17.327
01:02:13.271 : en:01:02:13.271
01:05:21.501 : en:01:05:21.501
01:09:57.860 : en:01:09:57.860
01:12:39.105 : en:01:12:39.105
01:14:51.696 : en:01:14:51.696
01:19:17.586 : en:01:19:17.586
01:21:36.225 : en:01:21:36.225
01:24:28.272 : en:01:24:28.272
01:26:05.243 : en:01:26:05.243
-Скриншоты:
-Возвращение Супермена / Superman Returns (2006) BDRemux- Русское название: Возвращение Супермена
Оригинальное название: Superman Returns
Производство: Warner Bros. Pictures / США
Год выпуска: 2006
Жaнр: Фантастика, Приключения-Oписание фильма:
Возвратившись на Землю после своего многолетнего и загадочного отсутствия, Супермен обнаруживает, что его заклятый враг Лекс Лютор опять строит ему козни, а его возлюбленная Лоис Лэйн вроде бы уже устроила свою личную жизнь. Кроме того, Супермен понимает, что за то время, когда его не было, люди научились прекрасно обходиться без него. Чтобы защитить мир, который он любит, от катастрофических разрушений, Супермену приходится преодолевать огромные расстояния: он опускается в океанские глубины и поднимается на космические высоты…-Pежиссер: Брайан Сингер
Aктеры: Брэндон Рут, Кейт Босворт, Кевин Спейси, Джеймс Мэрсден, Паркер Поузи, Фрэнк Ланджелла, Сэм Хантингтон, Ева Мари Сэйнт, Марлон Брандо, Кэлл Пенн-Пpодолжительность: 02:34:19
Пeревод: Профессиональный (дублированный)
Оригинальная аудиодорожка: английский
Язык cубтитров: русские, английские
Вид субтитров: Вшитые- -Видеокодек: VC-1
Битрейт видео: ~15600 Кбит/с
Размер кадра: 1920x1080p
Качество видео: BDRemux 1080p-Аудио 1: Русский AC3, 6 ch, 448 Кбит/с)
Аудио 2: Aнглийский DTS-HD MA , 6 ch, 1510 Кбит/с
-

Знаете ли вы, что...

Этот кинопроект может по праву считаться многострадальным, ведь о его начале говорили еще в середине 90-х. Тогда на главную роль прочили только одного человека — Николаса Кейджа.
В июле 2004 года режиссером был выбран Брайан Сингер.
В сценаристы был выбран Кевин Смит, однако чуть позднее отказался, и эту вакансию заняли сразу двое: Дэн Харрис и Майкл Догерти.
На роль Супермэна в разное время претендовали такие актеры как Джош Хартнетт, Пол Уокер, Мэттью Бомер, Брендан Фрейзер, Эштон Кетчер, Дэвид Бореаназ, Иен Сомерхолдер, Хенри Кэвилл и Джерри О`Коннелл.
Брэтт Рэтнер отказался возглавить проект, так как неразбериха по поводу выбора актера на главную роль несколько подзятянулась, виной чему стала безалаберность боссов Warner Bros.
Если бы Рэтнер остался у руля проекта, то роль Джо-Эля наверняка бы досталась Энтони Хопкинсу.
После отставки Рэтнера, кинопроект с мертвой точки попытался было сдвинуть небезызвестный режиссер МакДжи, однако также не преуспел в этом. Режиссера не устраивал выбор продюсерского штаба насчет места съемок (Австралия) и выделяемых денежных средств на кинопроизводство.
В начале июля 2004 года МакДжи покинул проект. За то недолгое время, что ему удалось поруководить процессом, режиссером были просмотрены следующие кандидаты на роль Супермэна: Джейсон Бер и Джаред Падалески. Также в ходе кастинга на роль Луис Лэйн МакДжи внимательно изучал игру Скарлетт Йохансон.
На роли Лекса Лютера и Джо-Эля пробовался Джонни Депп.
Начиная с 1993 года, на данный проект было потрачено порядка 50 миллионов долларов, большая часть из которых вылетела в трубу. Основной частью расходов стали горы сценарного материала, накопленные за десятилетие. Кроме того, немалые средства были потрачены на начальную проработку материала под руководством МакДжи — компьютерные наработки, различные прорисовки сюжетных ходов мультипликаторами и прочее.
На получение роли Луис Лэйн претендовали Элиша Катберт, Клэр Дейнс и Кери Расселл, Миша Бартон и Кира Найтли.
Вариант сценария, написанный Кевином Смитом, был основан на одном из комиксов 1993 года, в ходе которого Супермэн погибал от существа по кличке «Doomsday».
Проект Тима Бертона под названием «Superman Lives» некоторое время находился на стадии предпродакшена, успев обзавестись тизер-постером. Картина должна была выйти в прокат в 1998 году.
На роль Генерала Зода Сингер хотел привлечь только одного актера — Джуда Лоу. После отказа Джуда Сингер принял решение полностью убрать персонажа из сценария.
Джеймс Кавизель выражал огромный интерес к получению роли Супермэна, однако Сингер отказался от его услуг, уповая на то, что Джеймс стал «слишком известным» после исполнения роли Иисуса в проекте Мэла Гибсона «Страсти Христовы».
Съемки картины проходили в австралийском Сиднее.
Для исполнения роли Супермэна Брэндону Руту пришлось набрать около 10 кг мускульной массы.
Почти все варианты сценария обыгрывали тему смерти Супермэна и неожиданного возращения к жизни. Из этих многочисленных вариантов особым образом стоит отметить сюжет Джонатана Лемкина, в ходе которого Супермэн незадолго до гибели успевает оплодотворить Луис Лэйн. Во время родов Луис также погибает, а появившийся на свет ребенок становится новым Супермэном. Этот сценарий был отвергнут практически сразу же.
Как известно, данная работа станет дебютной для малоизвестного актера Брэндона Рута. Стоит рассказать о первой встрече Сингера и Рута, состоявшейся в кофейне. Во время разговора Брэндон умудрился пролить свою чашку кофе — так велико было охватившее его волнение. Брэндон начал паниковать, думая, что теперь роль ему точно не достанется. В ответ Сингер лишь громко рассмеялся и заявил, что именно этот инцидент только что помог юноше получить заветную роль. Сингер почувствовал, что неуклюжий и застенчивый Кларк Кент в исполнении Брэндона будет выглядеть очень натуралистично.
В фильме упоминается город Готем приблизительно на 60 минуте фильма. Об этом сообщает темнокожая телеведущая новостей.
-

MediaInfo:

General
ID : 1
Complete name : E:\NMN Club\Superman.Anthology\Superman.Returns.2006.m2ts
Format : BDAV
Format/Info : Blu-ray Video
File size : 19.7 GiB
Duration : 2h 34mn
Overall bit rate : 18.3 Mbps
Maximum Overall bit rate : 35.5 Mbps
Video
ID : 4113 (0x1011)
Menu ID : 1 (0x1)
Format : VC-1
Format profile : AP@L3
Duration : 2h 34mn
Width : 1 920 pixels
Height : 1 080 pixels
Display aspect ratio : 16:9
Frame rate : 23.976 fps
Resolution : 8 bits
Colorimetry : 4:2:0
Scan type : Progressive
Audio #1
ID : 4352 (0x1100)
Menu ID : 1 (0x1)
Format : DTS
Format/Info : Digital Theater Systems
Format profile : MA
Muxing mode : Stream extension
Duration : 2h 34mn
Bit rate mode : Variable
Channel(s) : 6 channels
Channel positions : Front: L C R, Surround: L R, LFE
Sampling rate : 48.0 KHz
Resolution : 16 bits
Language : English
Audio #2
ID : 4353 (0x1101)
Menu ID : 1 (0x1)
Format : AC-3
Format/Info : Audio Coding 3
Duration : 2h 34mn
Bit rate mode : Constant
Bit rate : 448 Kbps
Channel(s) : 6 channels
Channel positions : Front: L C R, Surround: L R, LFE
Sampling rate : 48.0 KHz
Stream size : 495 MiB (2%)
Language : Russian
Text #1
ID : 4608 (0x1200)
Menu ID : 1 (0x1)
Format : PGS
Language : English
Text #2
ID : 4609 (0x1201)
Menu ID : 1 (0x1)
Format : PGS
Language : Russian
-Скриншоты:
Время раздачи: 24/7 - круглосуточно

[Цитировать]



Показать сообщения:    

Текущее время: 08-Дек 05:07

Часовой пояс: UTC + 3


Вы не можете начинать темы
Вы не можете отвечать на сообщения
Вы не можете редактировать свои сообщения
Вы не можете удалять свои сообщения
Вы не можете голосовать в опросах
Вы не можете прикреплять файлы к сообщениям
Вы не можете скачивать файлы

!ВНИМАНИЕ!
Сайт не предоставляет электронные версии произведений, а занимается лишь коллекционированием и каталогизацией ссылок, присылаемых и публикуемых на форуме нашими читателями. Если вы являетесь правообладателем какого-либо представленного материала и не желаете, чтобы ссылка на него находилась в нашем каталоге, свяжитесь с нами, и мы незамедлительно удалим ее. Файлы для обмена на трекере предоставлены пользователями сайта, и администрация не несет ответственности за их содержание. Просьба не заливать файлы, защищенные авторскими правами, а также файлы нелегального содержания!