[ Сегодня идет свободное скачивание без начисления Download ]


Статистика раздачи
Нет
 
   
 
Top  
 
 
-Дом терпимости / L'Apollonide (Souvenirs de la maison close) (2011) HDTVRip- Русское название: Дом терпимости
Оригинальное название: L'Apollonide (Souvenirs de la maison close)
Год выпуска: 2011
Производство: Франция / Arte France, arte France Cin?ma, Canal+ [fr]
Жанр: Драма-Описание фильма:
Начало ХХ века. Парижский публичный дом, доживающий последние дни. Длинный шрам на лице одной из проституток — словно трагическая улыбка. В этом отгороженном стенами закрытом мире, невидимом со стороны, происходит целая жизнь: мужчины влюбляются или ненавидят, а женщины делят радости, печали, страхи и секреты…-Режиссер: Бертран Бонелло
Продюсер: Бертран Бонелло, Кристина Ларсен
Актеры: Ноэми Львовски, Хафсия Херци, Селин Саллетт, Жасмин Тринка, Адель Энель, Ксавье Бовуа, Луи-До де Ланкесэ, Майа Сандос, Анаис Томас-Продолжительность: 02:00:36
Перевод: Многоголосый закадровый, профессиональный- -Дата мировой премьеры: 16 мая 2011
Дата выхода DVD релиза: 21 марта 2013, «Cinema Prestige»-Видеокодек: MPEG-4 AVC/H.264
Битрейт видео: ~1750 Кбит/с
Размер кадра: 1024x576
Качество видео: HDTVRip-AVC
Аудио#1: Русский (AC3, 6 ch, 448 Кбит/с)
Аудио#2: Французский (AC3, 6 ch, 448 Кбит/с)

MediaInfo

Общее
Уникальный идентификатор : 229694544831162865766730260187880981660 (0xACCD8F68F51A2D10A4F2DB32A619849C)
Полное имя : D:\Торрент раздача\Dom.terpimosti.2011.x264.HDTVRip.mkv
Формат : Matroska
Версия формата : Version 2
Размер файла : 2,23 Гбайт
Продолжительность : 2 ч. 0 м.
Общий поток : 2646 Кбит/сек
Дата кодирования : UTC 2013-05-18 16:15:38
Программа кодирования : mkvmerge v5.4.0 ('Piper') built on Mar 10 2012 13:34:39
Библиотека кодирования : libebml v1.2.3 + libmatroska v1.3.0
Видео
Идентификатор : 1
Формат : AVC
Формат/Информация : Advanced Video Codec
Профиль формата : [email protected]
Параметр CABAC формата : Да
Параметр ReFrames формата : 9 кадров
Идентификатор кодека : V_MPEG4/ISO/AVC
Продолжительность : 2 ч. 0 м.
Битрейт : 1750 Кбит/сек
Ширина : 1024 пикселя
Высота : 576 пикселей
Соотношение сторон : 16:9
Режим частоты кадров : Постоянный
Частота кадров : 25,000 кадров/сек
Цветовое пространство : YUV
Субдискретизация насыщенности : 4:2:0
Битовая глубина : 8 бит
Тип развёртки : Прогрессивная
Бит/(Пиксели*Кадры) : 0.119
Размер потока : 1,43 Гбайт (64%)
Библиотека кодирования : x264 core 125 r2208 d9d2288
Настройки программы : cabac=1 / ref=9 / deblock=1:-2:-2 / analyse=0x3:0x133 / me=umh / subme=10 / psy=1 / psy_rd=1.00:0.00 / mixed_ref=1 / me_range=32 / chroma_me=1 / trellis=2 / 8x8dct=1 / cqm=0 / deadzone=21,11 / fast_pskip=0 / chroma_qp_offset=-2 / threads=6 / lookahead_threads=1 / sliced_threads=0 / nr=0 / decimate=0 / interlaced=0 / bluray_compat=0 / constrained_intra=0 / bframes=8 / b_pyramid=2 / b_adapt=2 / b_bias=0 / direct=3 / weightb=1 / open_gop=0 / weightp=2 / keyint=250 / keyint_min=25 / scenecut=40 / intra_refresh=0 / rc=2pass / mbtree=0 / bitrate=1750 / ratetol=1.0 / qcomp=0.60 / qpmin=0 / qpmax=69 / qpstep=4 / cplxblur=20.0 / qblur=0.5 / ip_ratio=1.40 / pb_ratio=1.30 / aq=1:0.80
Default : Да
Forced : Нет
Аудио #1
Идентификатор : 2
Формат : AC-3
Формат/Информация : Audio Coding 3
Расширение режима : CM (complete main)
Параметр Endianness формата : Big
Идентификатор кодека : A_AC3
Продолжительность : 2 ч. 0 м.
Вид битрейта : Постоянный
Битрейт : 448 Кбит/сек
Каналы : 6 каналов
Расположение каналов : Front: L C R, Side: L R, LFE
Частота : 48,0 КГц
Битовая глубина : 16 бит
Метод сжатия : С потерями
Размер потока : 387 Мбайт (17%)
Язык : Russian
Default : Да
Forced : Нет
Аудио #2
Идентификатор : 3
Формат : AC-3
Формат/Информация : Audio Coding 3
Расширение режима : CM (complete main)
Параметр Endianness формата : Big
Идентификатор кодека : A_AC3
Продолжительность : 2 ч. 0 м.
Вид битрейта : Постоянный
Битрейт : 448 Кбит/сек
Каналы : 6 каналов
Расположение каналов : Front: L C R, Side: L R, LFE
Частота : 48,0 КГц
Битовая глубина : 16 бит
Метод сжатия : С потерями
Задержка видео : 8 мс.
Размер потока : 387 Мбайт (17%)
Язык : French
Default : Нет
Forced : Нет
Скриншоты:
Время раздачи: 09:00-23:00 (МСК)

[Цитировать]



Показать сообщения:    

Текущее время: 06-Дек 20:59

Часовой пояс: UTC + 3


Вы не можете начинать темы
Вы не можете отвечать на сообщения
Вы не можете редактировать свои сообщения
Вы не можете удалять свои сообщения
Вы не можете голосовать в опросах
Вы не можете прикреплять файлы к сообщениям
Вы не можете скачивать файлы

!ВНИМАНИЕ!
Сайт не предоставляет электронные версии произведений, а занимается лишь коллекционированием и каталогизацией ссылок, присылаемых и публикуемых на форуме нашими читателями. Если вы являетесь правообладателем какого-либо представленного материала и не желаете, чтобы ссылка на него находилась в нашем каталоге, свяжитесь с нами, и мы незамедлительно удалим ее. Файлы для обмена на трекере предоставлены пользователями сайта, и администрация не несет ответственности за их содержание. Просьба не заливать файлы, защищенные авторскими правами, а также файлы нелегального содержания!