[ Сегодня идет свободное скачивание без начисления Download ]


Статистика раздачи
Нет
 
   
 
Top  
 
 
-Эпоха алчности / Bailout: The Age of Greed (2013) WEB-DLRip- Русское название: Эпоха алчности
Оригинальное название: Bailout: The Age of Greed
Год выпуска: 2013
Жанр: Триллер, Драма
Описание фильма:
Это история обычного, среднестатистического жителя Нью-Йорка, с хорошей работой и счастливой семьей. После того, как наступает экономический кризис, он лишается работы и будучи в отчаянии он берет оружие и отправляется мстить за свою испорченную жизнь.
Режиссер: Уве Болл
Актеры: Доминик Пёрселл, Эрин Карплак, Эдвард Ферлонг, Джон Хёрд, Кит Дэвид, Майкл Паре, Локлин Манро, Тайрон Лейтсо, Майк Допуд, Барклай Хоуп
Продолжительность: 01:38:24
Перевод: Одноголосый закадровый
Автор перевода: [den904] | [Janetta]
Язык субтитров: English
Вид субтитров: Вшитые
Дата мировой премьеры: 10 мая 2013

Видеокодек: MPEG-4 AVC/H.264
Битрейт видео: ~4 107 Kbps (0.187 bit/pixel)
Размер кадра: 1280x716
Качество видео: WEB-DLRip
Аудиокодек: AC3
Аудио #1: Русский ( AC3 / 6 ch / 48 kHz / 384 Kbps ) - Одноголосый любительский
Аудио #3: Английский ( AC3 / 6 ch / 48 kHz / 384 Kbps ) - Оригинал
Скачать семпл

MediaInfo

Общее
Уникальный идентификатор : 215646544620394865451703883026271498908 (0xA23C03865A3A0A26994096A6DA22F29C)
Полное имя : C:\Users\Артём\Desktop\Android\Assault.on.Wall.Street.2013.720p.WEBDL.720p.mkv
Формат : Matroska
Версия формата : Version 4 / Version 2
Размер файла : 3,44 Гбайт
Продолжительность : 1 ч. 38 м.
Общий поток : 4974 Кбит/сек
Дата кодирования : UTC 2013-05-18 10:37:01
Программа кодирования : mkvmerge v6.2.0 ('Promised Land') built on Apr 28 2013 12:22:01
Библиотека кодирования : libebml v1.3.0 + libmatroska v1.4.0
Видео
Идентификатор : 1
Формат : AVC
Формат/Информация : Advanced Video Codec
Профиль формата : High@L3.1
Параметр CABAC формата : Нет
Параметр ReFrames формата : 2 кадра
Идентификатор кодека : V_MPEG4/ISO/AVC
Продолжительность : 1 ч. 38 м.
Битрейт : 4107 Кбит/сек
Ширина : 1280 пикселей
Высота : 716 пикселей
Соотношение сторон : 16:9
Режим частоты кадров : Постоянный
Частота кадров : 23,976 кадра/сек
Цветовое пространство : YUV
Субдискретизация насыщенности : 4:2:0
Битовая глубина : 8 бит
Тип развёртки : Прогрессивная
Бит/(Пиксели*Кадры) : 0.187
Размер потока : 2,84 Гбайт (83%)
Язык : English
Default : Да
Forced : Нет
Основные цвета : BT.709
Характеристики трансфера : BT.709
Коэффициенты матрицы : BT.709
Аудио #1
Идентификатор : 2
Формат : AC-3
Формат/Информация : Audio Coding 3
Расширение режима : CM (complete main)
Параметр Endianness формата : Big
Идентификатор кодека : A_AC3
Продолжительность : 1 ч. 38 м.
Вид битрейта : Постоянный
Битрейт : 384 Кбит/сек
Каналы : 6 каналов
Расположение каналов : Front: L C R, Side: L R, LFE
Частота : 48,0 КГц
Битовая глубина : 16 бит
Метод сжатия : С потерями
Размер потока : 272 Мбайт (8%)
Язык : Russian
Default : Нет
Forced : Нет
Аудио #2
Идентификатор : 3
Формат : AC-3
Формат/Информация : Audio Coding 3
Расширение режима : CM (complete main)
Параметр Endianness формата : Big
Идентификатор кодека : A_AC3
Продолжительность : 1 ч. 38 м.
Вид битрейта : Постоянный
Битрейт : 384 Кбит/сек
Каналы : 6 каналов
Расположение каналов : Front: L C R, Side: L R, LFE
Частота : 48,0 КГц
Битовая глубина : 16 бит
Метод сжатия : С потерями
Размер потока : 272 Мбайт (8%)
Язык : English
Default : Да
Forced : Нет
Текст
Идентификатор : 4
Формат : UTF-8
Идентификатор кодека : S_TEXT/UTF8
Идентификатор кодека/Информация : UTF-8 Plain Text
Язык : English
Default : Да
Forced : Нет
Меню
00:00:00.000 : en:Chapter 01
00:11:04.000 : en:Chapter 02
00:22:44.000 : en:Chapter 03
00:33:02.000 : en:Chapter 04
00:42:56.000 : en:Chapter 05
00:51:55.000 : en:Chapter 06
01:02:36.000 : en:Chapter 07
01:12:46.000 : en:Chapter 08
01:24:15.000 : en:Chapter 09
01:37:01.000 : en:Chapter 10
Скриншоты


Время раздачи: С 8:30 до 23:00

[Цитировать]

Топик был перенесен из форума Новинки кинопроката в форум Триллер
Henkok



Показать сообщения:    

Текущее время: 07-Дек 11:44

Часовой пояс: UTC + 3


Вы не можете начинать темы
Вы не можете отвечать на сообщения
Вы не можете редактировать свои сообщения
Вы не можете удалять свои сообщения
Вы не можете голосовать в опросах
Вы не можете прикреплять файлы к сообщениям
Вы не можете скачивать файлы

!ВНИМАНИЕ!
Сайт не предоставляет электронные версии произведений, а занимается лишь коллекционированием и каталогизацией ссылок, присылаемых и публикуемых на форуме нашими читателями. Если вы являетесь правообладателем какого-либо представленного материала и не желаете, чтобы ссылка на него находилась в нашем каталоге, свяжитесь с нами, и мы незамедлительно удалим ее. Файлы для обмена на трекере предоставлены пользователями сайта, и администрация не несет ответственности за их содержание. Просьба не заливать файлы, защищенные авторскими правами, а также файлы нелегального содержания!