[ Сегодня идет свободное скачивание без начисления Download ]


Статистика раздачи
Нет
 
   
 
Top  
 
 
-Темные силы / The Dark (2005) HDTVRip- Русское название: Темные силы
Оригинальное название: The Dark
Год выпуска: 2005
Производство: Остров Мэн, Великобритания, Германия
Жанр: Ужасы, Триллер, Детектив
Описание фильма:
В попытке сплотить семью, жительница Нью-Йорка Адель возвращается с маленькой дочерью Сарой в Уэльс к мужу. Но уединенный дом на утесе, как выяснилось, имеет кровавое прошлое, подчиненное темным силам, которые властвуют до сих пор…
Режиссер: Джон Фоусет
Актеры: Мария Белло, Шон Бин, Морис Роевз, Софи Стаки, Эбигейл Стоун, Ричард Элфин, Каспер Харви, Элунд Джонс, Гвенит Петти, Робин Гриффит и др.
Продолжительность: 1:27:55
Перевод: Дублированный [лицензия]

Дата мировой премьеры: 12 мая 2005
Дата выхода DVD релиза: 7 апреля 2006, «West Video»
Видеокодек: DivX 5
Битрейт видео: ~1976 kb/s
Размер кадра: 720x400
Качество видео: HDTVRip
Аудиокодек: AC3 5.1
Битрейт аудио: 384 kb/s

MediaInfo:

Общее
Полное имя : C:Торренты\Темные силы.2005.HDTVRip.avi
Формат : AVI
Формат/Информация : Audio Video Interleave
Размер файла : 1,46 Гбайт
Продолжительность : 1 ч. 27 м.
Общий поток : 2369 Кбит/сек
Название фильма : The Dark (2005) - HDTVRip
Программа кодирования : VirtualDubMod 1.5.10.3 (build 2550/release)
Библиотека кодирования : VirtualDubMod build 2550/release
Видео
Идентификатор : 0
Формат : MPEG-4 Visual
Профиль формата : Advanced Simple@L5
Параметр BVOP формата : 1
Параметр QPel формата : Нет
Параметр GMC формата : Без точки перехода
Параметр матрицы формата : Выборочная
Идентификатор кодека : DX50
Идентификатор кодека/Подсказка : DivX 5
Продолжительность : 1 ч. 27 м.
Битрейт : 1976 Кбит/сек
Ширина : 720 пикселей
Высота : 400 пикселей
Соотношение сторон : 16:9
Частота кадров : 25,000 кадров/сек
Цветовое пространство : YUV
Субдискретизация насыщенности : 4:2:0
Битовая глубина : 8 бит
Тип развёртки : Прогрессивная
Метод сжатия : С потерями
Бит/(Пиксели*Кадры) : 0.274
Размер потока : 1,21 Гбайт (83%)
Библиотека кодирования : XviD 73
Аудио
Идентификатор : 1
Формат : AC-3
Формат/Информация : Audio Coding 3
Расширение режима : CM (complete main)
Параметр Endianness формата : Big
Идентификатор кодека : 2000
Продолжительность : 1 ч. 27 м.
Вид битрейта : Постоянный
Битрейт : 384 Кбит/сек
Каналы : 6 каналов
Расположение каналов : Front: L C R, Side: L R, LFE
Частота : 48,0 КГц
Битовая глубина : 16 бит
Метод сжатия : С потерями
Размер потока : 241 Мбайт (16%)
Выравнивание : Разделение по промежуткам
Продолжительность промежутка : 40 мс. (1,00 видеокадр)
Время предзагрузки промежутка : 500 мс.
Заголовок : Dub

Примечание:

От обычной версии, альтернативная отличается более другой концепцией и концовкой.
Скриншоты: Время раздачи: с 10.00 до 23.00

[Цитировать]



Показать сообщения:    

Текущее время: 09-Дек 08:49

Часовой пояс: UTC + 3


Вы не можете начинать темы
Вы не можете отвечать на сообщения
Вы не можете редактировать свои сообщения
Вы не можете удалять свои сообщения
Вы не можете голосовать в опросах
Вы не можете прикреплять файлы к сообщениям
Вы не можете скачивать файлы

!ВНИМАНИЕ!
Сайт не предоставляет электронные версии произведений, а занимается лишь коллекционированием и каталогизацией ссылок, присылаемых и публикуемых на форуме нашими читателями. Если вы являетесь правообладателем какого-либо представленного материала и не желаете, чтобы ссылка на него находилась в нашем каталоге, свяжитесь с нами, и мы незамедлительно удалим ее. Файлы для обмена на трекере предоставлены пользователями сайта, и администрация не несет ответственности за их содержание. Просьба не заливать файлы, защищенные авторскими правами, а также файлы нелегального содержания!