[ Сегодня идет свободное скачивание без начисления Download ]


Статистика раздачи
Нет
 
   
 
Top  
 
 
- КВН-2013. Высшая лига. 1/4 финала. Третья игра (2013.05.19) HDTV [H.264/1080i] - Режиссер / Телекомпания: Первый канал HD
Русское название: КВН
Год выпуска: 2013
Жанр: Телепередача
Ведущий: Александр Масляков.
Описание:
Что такое КВН, знают, без сомнения, все. В КВН играют во всем мире, это прежде всего молодежная игра. Постоянные конкурсные задания: "Визитная карточка", "Разминка", "Конкурс капитанов", "Музыкальный конкурс", "Домашнее задание". Игру команд оценивает профессиональное жюри — люди, у которых с чувством юмора все в порядке, многие из них раньше сами играли в КВН. Среди членов жюри были Константин Эрнст, Леонид Парфенов, Юлий Гусман, Леонид Ярмольник, Валдис Пельш, Сергей Шолохов, Геннадий Хазанов и другие. Кроме самих игр проводятся ежегодные встречи: фестиваль команд КВН (с 1990 г., семь раз фестиваль проходил в г.Сочи), музыкальный фестиваль КВН, летний кубок КВН, международные товарищеские игры в КВН. Сборная КВН играет со сборными других стран. Уже состоялись игры между сборной КВН и сборными Америки, Австралии, Израиля... Игра в КВН для многих становится профессией, а многие благодаря игре связывают жизнь с искусством. Из КВН "вышли": Леонид Якубович, Михаил Марфин, Татьяна Лазарева, Олег Филимонов, Юлий Гусман и многие другие.
Продолжительность: 01:53:19
Видеокодек: MPEG-TS (AVC)
Битрейт видео: ~11300 kb/s
Размер кадра: 1920 x 1080
Качество видео: HDTV
Аудио: AC3, 2ch., 384 kb/s

Команды. Жюри.

Жюри: Валдис Пельш, Игорь Верник, Михаил Галустян, Михаил Ефремов, Юлий Гусман, Константин Эрнст
Команды:
Плохая компания: сборная Красноярского края
Парапапарам: МГИМО Москва
Днепр: сборная Днепропетровской области
Раисы: Иркутск
Сборная Чеченской республики: Грозный
Описание:
Тема сезона: КВН уже не тот
Тема игры: Любовь
Приветствие: Любимый город
Раисы:
- подарки от чистого сердца
- песня про Ефремова и Верника
- зеркало
Днепр:
- куча свадеб
- боксёр на медкомиссии перед поединком
- активистки Femen захватили заложника
- девушки на выпускном
Плохая компания:
- в порядочной семье
- настоящий друг
- в обычной семье наутро после бурной субботы
- в частном охранном агентстве
Сборная Чеченской республики:
- добрали
- шоу "Проверка на верность"
- в ресторане
- грозненский "Ералаш"
- внедрённый в мафию секретный агент
Парапапарам:
- пародия на Эрнста
- в 7 батальоне ГИБДД
- Виталий Мутко и репетитор по французскому
- враньё подростка
- комментарии футбольного матча в недалёком будущем
- розыгрыш Эрнста
Биатлон:
Стрельба команд в зал дала командам дополнительное время подготовиться к следующим конкурсам, немало повеселив зал.
СТЭМ: Любовь зла
Парапапарам:
- в семье вызвали "Мужа на час"
Сборная Чеченской республики:
- свидание с девушкой в ресторане по инструктажу
Раисы:
- в приёмной у Гудвина
Плохая компания:
- настоящий русский мужик и настоящий гараж
Днепр:
- парень ради возлюбленной решился на прыжок с парашютом
Музыкальный номер: Любви все возрасты покорны
Сборная Чеченской республики:
- песня о любви к Москве (Адриано Челентано - I love you)
Раисы:
- музыкальный дурдом "Муха-цокотуха"
Плохая компания:
- авантюры пацанов ради заработка
Парапапарам:
- номер-обращение к старшему поколению
Днепр:
- Игорь перепутал дату выписки из роддома

Результаты игры. Не смотреть!!!

Парапапарам — 13.7, Раисы — 13.4, Днепр — 13.4, Сборная Чеченской республики – 12.5, Плохая компания — 11.7

MediaInfo

Формат : MPEG-TS
Размер файла : 9,74 Гбайт
Продолжительность : 1 ч. 53 м.
Общий поток : 12,3 Мбит/сек
Видео
Идентификатор : 69 (0x45)
Идентификатор меню : 1 (0x1)
Формат : AVC
Формат/Информация : Advanced Video Codec
Профиль формата : [email protected]
Параметр CABAC формата : Да
Параметр ReFrames формата : 3 кадра
Идентификатор кодека : 27
Продолжительность : 1 ч. 53 м.
Битрейт : 11,3 Мбит/сек
Ширина : 1920 пикселей
Высота : 1080 пикселей
Соотношение сторон : 16:9
Частота кадров : 25,000 кадров/сек
Стандарт вещания : Component
Цветовое пространство : YUV
Субдискретизация насыщенности : 4:2:0
Битовая глубина : 8 бит
Тип развёртки : Чересстрочная
Порядок развёртки : Верхнее поле первое
Бит/(Пиксели*Кадры) : 0.218
Размер потока : 8,95 Гбайт (92%)
Основные цвета : BT.709-5, BT.1361, IEC 61966-2-4, SMPTE RP177
Характеристики трансфера : BT.709-5, BT.1361
Коэффициенты матрицы : BT.709-5, BT.1361, IEC 61966-2-4 709, SMPTE RP177
Аудио
Идентификатор : 68 (0x44)
Идентификатор меню : 1 (0x1)
Формат : AC-3
Формат/Информация : Audio Coding 3
Расширение режима : CM (complete main)
Идентификатор кодека : 129
Продолжительность : 1 ч. 53 м.
Вид битрейта : Постоянный
Битрейт : 384 Кбит/сек
Каналы : 2 канала
Расположение каналов : Front: L R
Частота : 48,0 КГц
Битовая глубина : 16 бит
Метод сжатия : С потерями
Задержка видео : -40 мс.
Размер потока : 311 Мбайт (3%)
Язык : English
Скриншоты:

[Цитировать]



Показать сообщения:    

Текущее время: 06-Дек 06:00

Часовой пояс: UTC + 3


Вы не можете начинать темы
Вы не можете отвечать на сообщения
Вы не можете редактировать свои сообщения
Вы не можете удалять свои сообщения
Вы не можете голосовать в опросах
Вы не можете прикреплять файлы к сообщениям
Вы не можете скачивать файлы

!ВНИМАНИЕ!
Сайт не предоставляет электронные версии произведений, а занимается лишь коллекционированием и каталогизацией ссылок, присылаемых и публикуемых на форуме нашими читателями. Если вы являетесь правообладателем какого-либо представленного материала и не желаете, чтобы ссылка на него находилась в нашем каталоге, свяжитесь с нами, и мы незамедлительно удалим ее. Файлы для обмена на трекере предоставлены пользователями сайта, и администрация не несет ответственности за их содержание. Просьба не заливать файлы, защищенные авторскими правами, а также файлы нелегального содержания!