[ Сегодня идет свободное скачивание без начисления Download ]


Статистика раздачи
Нет
 
   
 
Top  
 
 
-Умопомрачительные фантазии Чарли Свона-третьего / A Glimpse Inside the Mind of Charles Swan III (2012) BDRip- Русское название: Умопомрачительные фантазии Чарли Свона-третьего
Оригинальное название: A Glimpse Inside the Mind of Charles Swan III
Год выпуска: 2012
Производство: США / A24, American Zoetrope, The Directors Bureau
Жанр: Комедия
Перевод: Дублированный [лицензия]
Субтитры: Вшитые отключаемые
Язык субтитров: английский
Релиз группа: -Дата мировой премьеры: 15 ноября 2012
Дата российской премьеры: 14 марта 2013, «Кино без границ»
Дата выхода DVD релиза: 20 мая 2013, «Новый Диск»-Режиссер: Роман Коппола
Продюсер: Роман Коппола, Юри Хенли, Сью Ен Ан
Актеры: Чарли Шин, Джейсон Шварцман, Билл Мюррэй, Кэтрин Уинник, Патриция Аркетт, Обри Плаза, Дермот Малруни, Мэри Элизабет Уинстэд-Описание фильма:
Чарли Свон-третий — сибарит и ловелас. У него собственное креативное агентство и известные друзья, а жизнь его легка и беззаботна. И главное — Чарли встретил, наконец, любовь всей своей жизни — прекрасную Ивону…
Но идиллия длилась недолго: Ивона находит в шкафу богатую коллекцию фотографий прошлых подружек Чарли и, не желая когда-то стать одной из них, уходит. Сердце Чарли Свона-третьего разбито. Спасением становятся эксцентричные фантасмагории, где он во всевозможных невероятных обстоятельствах снова сражается за свою возлюбленную. Сможет ли он вернуть прекрасную Ивону не только в своих умопомрачительных фантазиях, но и в реальной жизни?- -Продолжительность: 01:25:49
Качество видео: BDRip-Видеокодек: MPEG-4 AVC/H.264
Битрейт видео: ~5777 Кбит/с
Размер кадра: 1280x696
Аудио#1: Русский - AC3, 448 Кбит/с (6 ch)
Аудио#2: Английский - DTS, 1510 Кбит/с (6 ch)

MediaInfo

Общее
Уникальный идентификатор : 193212652471044557998175579337982090480 (0x915B673EDAF9E4CA925E8937BC4A1CF0)
Полное имя : D:\Торрент раздача\Umopomrachitelnye.fantazii.Charli.Svona.2012.D.BDRip.720p.mkv
Формат : Matroska
Версия формата : Version 2
Размер файла : 4,64 Гбайт
Продолжительность : 1 ч. 25 м.
Общий поток : 7736 Кбит/сек
Название фильма : A Glimpse Inside the Mind of Charles Swan III
Дата кодирования : UTC 2013-05-17 11:37:39
Программа кодирования : mkvmerge v5.2.0 ('I can't explain') built on Dec 18 2011 18:12:03
Библиотека кодирования : libebml v1.2.3 + libmatroska v1.3.0
Видео
Идентификатор : 1
Формат : AVC
Формат/Информация : Advanced Video Codec
Профиль формата : High@L4.1
Параметр CABAC формата : Да
Параметр ReFrames формата : 5 кадров
Идентификатор кодека : V_MPEG4/ISO/AVC
Продолжительность : 1 ч. 25 м.
Битрейт : 5777 Кбит/сек
Ширина : 1280 пикселей
Высота : 696 пикселей
Соотношение сторон : 1,85:1
Режим частоты кадров : Постоянный
Частота кадров : 23,976 кадра/сек
Цветовое пространство : YUV
Субдискретизация насыщенности : 4:2:0
Битовая глубина : 8 бит
Тип развёртки : Прогрессивная
Бит/(Пиксели*Кадры) : 0.270
Размер потока : 3,37 Гбайт (73%)
Заголовок : a.glimpse.inside.the.mind.of.charles.swan.iii.2012.limited.720p.bluray.x264-geckos
Библиотека кодирования : x264 core 130 r2273 b3065e6
Настройки программы : cabac=1 / ref=5 / deblock=1:0:0 / analyse=0x3:0x133 / me=umh / subme=7 / psy=1 / psy_rd=1.00:0.00 / mixed_ref=1 / me_range=16 / chroma_me=1 / trellis=1 / 8x8dct=1 / cqm=0 / deadzone=21,11 / fast_pskip=0 / chroma_qp_offset=-2 / threads=18 / lookahead_threads=3 / sliced_threads=0 / nr=0 / decimate=1 / interlaced=0 / bluray_compat=0 / constrained_intra=0 / bframes=3 / b_pyramid=2 / b_adapt=1 / b_bias=0 / direct=1 / weightb=1 / open_gop=0 / weightp=2 / keyint=250 / keyint_min=23 / scenecut=40 / intra_refresh=0 / rc_lookahead=40 / rc=2pass / mbtree=1 / bitrate=5777 / ratetol=1.0 / qcomp=0.60 / qpmin=0 / qpmax=69 / qpstep=4 / cplxblur=20.0 / qblur=0.5 / ip_ratio=1.40 / aq=1:1.00
Язык : English
Default : Да
Forced : Да
Аудио #1
Идентификатор : 2
Формат : AC-3
Формат/Информация : Audio Coding 3
Расширение режима : CM (complete main)
Параметр Endianness формата : Big
Идентификатор кодека : A_AC3
Продолжительность : 1 ч. 25 м.
Вид битрейта : Постоянный
Битрейт : 448 Кбит/сек
Каналы : 6 каналов
Расположение каналов : Front: L C R, Side: L R, LFE
Частота : 48,0 КГц
Битовая глубина : 16 бит
Метод сжатия : С потерями
Размер потока : 275 Мбайт (6%)
Заголовок : DD 5.1 @ 448 kbps - Dub, R5
Язык : Russian
Default : Да
Forced : Да
Аудио #2
Идентификатор : 3
Формат : DTS
Формат/Информация : Digital Theater Systems
Режим : 16
Параметр Endianness формата : Big
Идентификатор кодека : A_DTS
Продолжительность : 1 ч. 25 м.
Вид битрейта : Постоянный
Битрейт : 1509 Кбит/сек
Каналы : 6 каналов
Расположение каналов : Front: L C R, Side: L R, LFE
Частота : 48,0 КГц
Битовая глубина : 24 бит
Метод сжатия : С потерями
Размер потока : 926 Мбайт (20%)
Заголовок : DTS 5.1 @ 1536 kbps
Язык : English
Default : Нет
Forced : Нет
Текст
Идентификатор : 4
Формат : UTF-8
Идентификатор кодека : S_TEXT/UTF8
Идентификатор кодека/Информация : UTF-8 Plain Text
Язык : English
Default : Нет
Forced : Нет
Меню
00:00:00.000 : en:00:00:00.000
00:05:41.633 : en:00:05:41.633
00:11:51.628 : en:00:11:51.628
00:15:13.121 : en:00:15:13.121
00:31:29.346 : en:00:31:29.346
00:39:17.772 : en:00:39:17.772
00:44:12.567 : en:00:44:12.567
00:52:04.913 : en:00:52:04.913
00:58:05.982 : en:00:58:05.982
01:03:44.154 : en:01:03:44.154
01:15:28.941 : en:01:15:28.941
01:19:02.571 : en:01:19:02.571
Скриншоты:
Время раздачи: 24/7

[Цитировать]

Топик был перенесен из форума Новинки кинопроката (HD Video) в форум Зарубежное кино (HD Video)
Bootch



Показать сообщения:    

Текущее время: 11-Дек 16:57

Часовой пояс: UTC + 3


Вы не можете начинать темы
Вы не можете отвечать на сообщения
Вы не можете редактировать свои сообщения
Вы не можете удалять свои сообщения
Вы не можете голосовать в опросах
Вы не можете прикреплять файлы к сообщениям
Вы не можете скачивать файлы

!ВНИМАНИЕ!
Сайт не предоставляет электронные версии произведений, а занимается лишь коллекционированием и каталогизацией ссылок, присылаемых и публикуемых на форуме нашими читателями. Если вы являетесь правообладателем какого-либо представленного материала и не желаете, чтобы ссылка на него находилась в нашем каталоге, свяжитесь с нами, и мы незамедлительно удалим ее. Файлы для обмена на трекере предоставлены пользователями сайта, и администрация не несет ответственности за их содержание. Просьба не заливать файлы, защищенные авторскими правами, а также файлы нелегального содержания!