[ Сегодня идет свободное скачивание без начисления Download ]


Статистика раздачи
Нет
 
   
 
Top  
 
 
- Сборник клипов - VA - Various Music part. 42 (2013) WEBRip 720p, 1080p - Исполнитель: Various Artists
Название: Various Music part. 42
Год выхода: 2013
Жанр: Dance, Pop, Trance, House, Rap
Кол-во клипов: 90
Продолжительность: ~04:04:19
Видеокодек: MPEG4 Video (H264) ; AVC
Качество видео: WEBRip 720p, 1080p
Размер кадра: 1280 x 720, 1920 x 1080
Битрейт видео: 1000-4500Kbps
Аудиокодек: AAC, AC3, MP3
Битрейт аудио: 128-384Kbps
Треклист:
1. 5ive Star - More 720p (3:28)
2. Alex M. - Greatest DJ 1080p (3:10)
3. Aligator - Be With You (feat. Sarah West) 1080p (4:22)
4. Andreea D - Magic Love 1080p (3:53)
5. Arianna - Sexy People (The Fiat Song) ft. Pitbull 1080p (4:46)
6. Artic ft. Asti - Сладкий Сон 1080p (3:19)
7. Avril Lavigne - Here's To Never Growing Up 1080p (3:44)
8. BAZUKA - Musica 720p (2:34)

Треклист- продолжение

9. Blaze 1 ft. Devin The Dude - 'Weed and Bitches' - Directed by Jae Synth 1080p (5:38)
10. BOMBS AWAY - PARTY BASS - Coming Soon the the UK ! 1080p (3:30)
11. Bryce feat. J-Malik - Turn Up The Night 720p (3:37)
12. Candy Six feat. Anthony Locks - Close Your Eyes - Sean Finn Edit 2013 720p (3:39)
13. Clemens - Har Du Noget At Sige 1080p (3:35)
14. Dani Moreno feat. Romy Low - Break It! 1080p (3:55)
15. David Guetta - Play Hard ft. Ne-Yo, Akon 1080p (4:01)
16. Demi Lovato - Heart Attack 1080p (3:35)
17. Dido - End of Night 1080p (3:27)
18. Dipl. Inch - Superego (Official Video HD) (2:58)
19. Don Cash & Baudo - Ahi Na Ma 1080p (4:28)
20. Don Diablo feat. Alex Clare & Kelis - Give It All 1080p (4:24)
21. ELENI FOUREIRA - SWEETEST LOVE 1080p (3:41)
22. FIY - My City 1080p (3:56)
23. Geo Da Silva & Jack Mazzoni - Booma Yee 1080p (3:46)
24. Haifa Wehbe - MJK (Heartbeats Remix) 1080p (3:49)
25. Henry Deep - I'll Be With You 1080p (3:44)
26. IN THIS MOMENT - Adrenalize 720p (4:27)
27. INDIRA - Я Буду верить (3:47)
28. Jennifer Lopez - Live It Up ft. Pitbull 1080p (4:30)
29. Jess Molli - I Can Do It 720p (3:30)
30. Juliet Simms - Wild Child 1080p (3:28)
31. Katia Nicole - The Girl Can't Help It 720p (3:41)
32. Kato - I'm In Love (feat. Shontelle) 1080p (4:00)
33. Lalo Project - In This Moment 1080p (3:46)
34. Lloyd Banks Feat. Juelz Santana - Beamer, Benz Or Bentley (Dirty) раритет 2009г 1080p (3:29)
35. Lolita Jolie - Moi Lolita 1080p (3:11)
36. Manian & Nicco - Tonight 1080p (3:34)
37. Melanie Iglesias - The Sexiest Lightshow Ever 1080p (1:45)
38. Memories Back Then ft. T.I., B.o.B, Kendrick Lamar 1080p (4:56)
39. NERVO - Hold On 1080p (3:04)
40. No!end & Viktoria Metzker ft. Regina Dukai - Don't let me know 720p (3:30)
41. NYUSHA - НЮША - Наедине 1080p (3:55)
42. Papa ce soir remix 1080p (5:32)
43. PromadheadZ - Холодным дождём 1080p (3:43)
44. PSY - GANGNAM STYLE @ Summer Stand Live Concert 720p (4:03)
45. PSY - GENTLEMAN M-V 1080p (3:53)
46. Sandro Escobar & DJ Rich-Art - Miami 1080p (2:50)
47. Selena Gomez - Come & Get It (MTV Movie Awards 2013) 720p (3:52)
48. Selena Gomez - Come & Get It 1080p (4:49)
49. Stone & Van Linden Feat. Lyck - Into The Light (Donzelli & Sanders Remix) 720p (3:15)
50. Svenstrup & Vendelboe - Dybt Vand (feat. Nadia Malm) 1080p (3:32)
51. T-killah ft. Лена Катина - Я Буду Рядом 1080p (4:00)
52. Tenishia - Jaguar 1080p (4:08)
53. Tim McGraw feat. Taylor Swift - Highway Don’t Care 1080p (5:36)
54. Vanessa Hudgens Feat. YLA - $$$ex 1080p (2:24)
55. W&W & Ummet Ozcan - The Code 1080p (2:52)
56. Yellow Claw & The Opposites - Thunder 1080p (3:32)
57. ИНФИНИТИ - Нежно 1080p (3:59)
58. Лоя - Звёзды 1080p (3:56)
59. Потап и Настя - Вместе 1080p (4:14)
60. Элина - Ты не мой 720p (3:15)
Бонус :
1. Zlata Ognevich - Gravity (Ukraine at Eurovision 2013) 1080p (3:12)
2. Евровидение 2013 (1-ый полуфинал)- Дина Гарипова - What If (Россия) 1080p (4:09)
3. Евровидение 2013 (1-ый полуфинал)- Злата Огневич - Gravity (Украина) 1080p (3:01)
4. Евровидение 2013 (1-ый полуфинал)- Эммили де Форест - Only Teardrops (Дания) 1080p (4:05)
5. Фарид Мамедов - Hold me Азербайджан - Евровидение 2013 - Финал 1080p (2:55)

MediaInfo:

General
Complete name                    : [video] 720p - 1080p - Various Music part 42\Aligator - Be With You (feat. Sarah West) 1080p.mp4
Format                           : MPEG-4
Format profile                   : Base Media / Version 2
Codec ID                         : mp42
File size                        : 83.2 MiB
Duration                         : 4mn 22s
Overall bit rate                 : 2 664 Kbps
Encoded date                     : UTC 2013-04-08 08:32:30
Tagged date                      : UTC 2013-04-08 08:32:30
Video
ID                               : 1
Format                           : AVC
Format/Info                      : Advanced Video Codec
Format profile                   : [url=mailto:High@L4.0]High@L4.0[/url]
Format settings, CABAC           : Yes
Format settings, ReFrames        : 1 frame
Codec ID                         : avc1
Codec ID/Info                    : Advanced Video Coding
Duration                         : 4mn 22s
Bit rate mode                    : Variable
Bit rate                         : 2 469 Kbps
Maximum bit rate                 : 9 603 Kbps
Width                            : 1 920 pixels
Height                           : 1 080 pixels
Display aspect ratio             : 16:9
Frame rate mode                  : Constant
Frame rate                       : 29.970 fps
Color space                      : YUV
Chroma subsampling               : 4:2:0
Bit depth                        : 8 bits
Scan type                        : Progressive
Bits/(Pixel*Frame)               : 0.040
Stream size                      : 77.1 MiB (93%)
Tagged date                      : UTC 2013-04-08 08:32:37
Audio
ID                               : 2
Format                           : AAC
Format/Info                      : Advanced Audio Codec
Format profile                   : LC
Codec ID                         : 40
Duration                         : 4mn 22s
Bit rate mode                    : Variable
Bit rate                         : 192 Kbps
Maximum bit rate                 : 202 Kbps
Channel(s)                       : 2 channels
Channel positions                : Front: L R
Sampling rate                    : 44.1 KHz
Compression mode                 : Lossy
Stream size                      : 6.00 MiB (7%)
Title                            : IsoMedia File Produced by Google, 5-11-2011
Encoded date                     : UTC 2013-04-08 08:32:34
Tagged date                      : UTC 2013-04-08 08:32:37
-Скриншоты:-

[Цитировать]



Показать сообщения:    

Текущее время: 09-Дек 06:58

Часовой пояс: UTC + 3


Вы не можете начинать темы
Вы не можете отвечать на сообщения
Вы не можете редактировать свои сообщения
Вы не можете удалять свои сообщения
Вы не можете голосовать в опросах
Вы не можете прикреплять файлы к сообщениям
Вы не можете скачивать файлы

!ВНИМАНИЕ!
Сайт не предоставляет электронные версии произведений, а занимается лишь коллекционированием и каталогизацией ссылок, присылаемых и публикуемых на форуме нашими читателями. Если вы являетесь правообладателем какого-либо представленного материала и не желаете, чтобы ссылка на него находилась в нашем каталоге, свяжитесь с нами, и мы незамедлительно удалим ее. Файлы для обмена на трекере предоставлены пользователями сайта, и администрация не несет ответственности за их содержание. Просьба не заливать файлы, защищенные авторскими правами, а также файлы нелегального содержания!