[ Сегодня идет свободное скачивание без начисления Download ]


Статистика раздачи
Нет
 
   
 
Top  
 
 
-Студия секса / Studio Sex (2012) BDRip-
Год выпуска: 2012
Страна Швеция
Жанр: Триллер, Криминал, Драма
Производство: Yellow Bird Films, Degeto Film, TV4 Nordisk Television
Режиссер: Агнета Фагерстрем-Олссон
Актеры: Малин Крепин, Бьёрн Чьелльман, Лейф Андре, Кайса Эрнст, Эрик Йоханссон, Феликс Энгстрем, Ричард Ульфзэтер, Леонард Терфельт, Андерс Албом, Йоханнес Альбен Альфвен, Анна Азкарате, Матс Бломгрен, Анна-Лена Хемстрём, Яннике Грут, Андреас Ротлин-Свенссон, Эльвира Францен, Эдвин Ридинг, Расмус Троедссон, Клара Бендз, Джимми Линдстрем, Николас Олссон, Алексей Манвелов, Кристоффер Свенссон
Перевод: Многоголосый закадровый (Baibako)
Язык субтитров: Английский, шведский
Вид субтитров: Вшитые (отключаемые)
Описание фильма:
Анника Бенгтзон работает летним интерном в местной газете. В надежде на какой-то эксклюзивный материал, она с готовностью принимает информацию о трупе молодой девушки в общественном парке. Она была изнасилована и убита. Анника пишет хорошую статью, которая понравилась боссу. Тот разрешает продолжить расследование и ее внимание привлекает любовник жертвы, владелец секс-клуба, где работала убитая, и высокопоставленный министр, частый гость злачного места, живущий неподалеку. Она роется в алиби бюрократа и находит про него много интересного, в том числе намеки на международный шпионаж. Дата мировой премьеры: 25 мая 2012
Продолжительность: 01:29:30
Качество видео: BDRip-AVC | Sample
Видео: MPEG-4 AVC/H.264, 1280x720 (16:9), 25,000 fps, 2721 Кbps, 0.118 bit/pixel
Аудио#1: 48 kHz, AC3 Dolby Digital, 3/2 (L,C,R,l,r) + LFE ch, 384.00 kbps | Русский
Аудио#2: 48 kHz, AC3 Dolby Digital, 3/2 (L,C,R,l,r) + LFE ch, 384.00 kbps | Шведский

MI

Общее
Уникальный идентификатор : 240719122734251464989928098351407539895 (0xB518D11106C193B0B4CDDC904299A6B7)
Полное имя : Studija.Seksa.2012.P.BDRip.720p.potroks.mkv
Формат : Matroska
Версия формата : Version 4 / Version 2
Размер файла : 2,18 Гбайт
Продолжительность : 1 ч. 29 м.
Общий поток : 3489 Кбит/сек
Название фильма : -=POTROKS=-
Дата кодирования : UTC 2013-05-20 14:07:33
Программа кодирования : mkvmerge v5.9.0 ('On The Loose') built on Dec 15 2012 16:39:58
Библиотека кодирования : libebml v1.3.0 + libmatroska v1.4.0
Видео
Идентификатор : 1
Формат : AVC
Формат/Информация : Advanced Video Codec
Профиль формата : High@L4.1
Параметр CABAC формата : Да
Параметр ReFrames формата : 8 кадров
Идентификатор кодека : V_MPEG4/ISO/AVC
Продолжительность : 1 ч. 29 м.
Битрейт : 2721 Кбит/сек
Ширина : 1280 пикселей
Высота : 720 пикселей
Соотношение сторон : 16:9
Режим частоты кадров : Постоянный
Частота кадров : 25,000 кадров/сек
Цветовое пространство : YUV
Субдискретизация насыщенности : 4:2:0
Битовая глубина : 8 бит
Тип развёртки : Прогрессивная
Бит/(Пиксели*Кадры) : 0.118
Размер потока : 1,66 Гбайт (76%)
Заголовок : Studio Sex
Библиотека кодирования : x264 core 125 r2208 d9d2288
Настройки программы : cabac=1 / ref=8 / deblock=1:-2:-1 / analyse=0x3:0x133 / me=umh / subme=11 / psy=1 / psy_rd=1.06:0.00 / mixed_ref=1 / me_range=32 / chroma_me=1 / trellis=2 / 8x8dct=1 / cqm=0 / deadzone=21,11 / fast_pskip=0 / chroma_qp_offset=-2 / threads=9 / lookahead_threads=1 / sliced_threads=0 / nr=0 / decimate=1 / interlaced=0 / bluray_compat=0 / constrained_intra=0 / bframes=9 / b_pyramid=2 / b_adapt=2 / b_bias=0 / direct=3 / weightb=1 / open_gop=0 / weightp=2 / keyint=250 / keyint_min=25 / scenecut=40 / intra_refresh=0 / rc_lookahead=150 / rc=2pass / mbtree=1 / bitrate=2721 / ratetol=1.0 / qcomp=0.70 / qpmin=0 / qpmax=69 / qpstep=4 / cplxblur=20.0 / qblur=0.5 / vbv_maxrate=50000 / vbv_bufsize=62500 / nal_hrd=none / ip_ratio=1.35 / aq=1:0.70
Язык : Swedish
Default : Да
Forced : Нет
Аудио #1
Идентификатор : 2
Формат : AC-3
Формат/Информация : Audio Coding 3
Расширение режима : CM (complete main)
Параметр Endianness формата : Big
Идентификатор кодека : A_AC3
Продолжительность : 1 ч. 29 м.
Вид битрейта : Постоянный
Битрейт : 384 Кбит/сек
Каналы : 6 каналов
Расположение каналов : Front: L C R, Side: L R, LFE
Частота : 48,0 КГц
Битовая глубина : 16 бит
Метод сжатия : С потерями
Размер потока : 246 Мбайт (11%)
Заголовок : MVO | DD 5.1 @ 384 kbps - Baibako
Язык : Russian
Default : Да
Forced : Да
Аудио #2
Идентификатор : 3
Формат : AC-3
Формат/Информация : Audio Coding 3
Расширение режима : CM (complete main)
Параметр Endianness формата : Big
Идентификатор кодека : A_AC3
Продолжительность : 1 ч. 29 м.
Вид битрейта : Постоянный
Битрейт : 384 Кбит/сек
Каналы : 6 каналов
Расположение каналов : Front: L C R, Side: L R, LFE
Частота : 48,0 КГц
Битовая глубина : 16 бит
Метод сжатия : С потерями
Размер потока : 246 Мбайт (11%)
Заголовок : Original | DD 5.1 @ 384 kbps
Язык : Swedish
Default : Нет
Forced : Нет
Текст #1
Идентификатор : 4
Формат : UTF-8
Идентификатор кодека : S_TEXT/UTF8
Идентификатор кодека/Информация : UTF-8 Plain Text
Язык : English
Default : Нет
Forced : Нет
Текст #2
Идентификатор : 5
Формат : UTF-8
Идентификатор кодека : S_TEXT/UTF8
Идентификатор кодека/Информация : UTF-8 Plain Text
Язык : Swedish
Default : Нет
Forced : Нет
Скриншоты:


Время раздачи: 24/7

[Цитировать]



Показать сообщения:    

Текущее время: 31-Мар 06:36

Часовой пояс: UTC + 6


Вы не можете начинать темы
Вы не можете отвечать на сообщения
Вы не можете редактировать свои сообщения
Вы не можете удалять свои сообщения
Вы не можете голосовать в опросах
Вы не можете прикреплять файлы к сообщениям
Вы не можете скачивать файлы

!ВНИМАНИЕ!
Сайт не предоставляет электронные версии произведений, а занимается лишь коллекционированием и каталогизацией ссылок, присылаемых и публикуемых на форуме нашими читателями. Если вы являетесь правообладателем какого-либо представленного материала и не желаете, чтобы ссылка на него находилась в нашем каталоге, свяжитесь с нами, и мы незамедлительно удалим ее. Файлы для обмена на трекере предоставлены пользователями сайта, и администрация не несет ответственности за их содержание. Просьба не заливать файлы, защищенные авторскими правами, а также файлы нелегального содержания!