[ Today is free to download without increasing Download ]

DL-List and Torrent activity
Бестселлер / Best Seller«A hired assassin. A cop turned author. Together they're rewriting the rulebook on the Mob.»
Год выпуска: 1987
Страна: США
Производство: Hemdale Films
Жанр: триллер, драма, криминал
Режиссер: Джон Флинн
В ролях: Джеймс Вудс, Брайан Деннехи, Виктория Теннант, Элисон Бэлсон, Пол Шенар, Джордж Коу, Анна Питоньяк, Мэри Карвер, Кэтлин Ллойд
Перевод: Профессиональный (многоголосый, закадровый)
Субтитры: Отсутствуют
Описание: Деннис - бывший полицейский, получивший известность как автор детективных романов. Клив - профессиональный убийца, преступления которого помогли его боссу создать целую финансовую империю. Клив подозревает, что босс распорядился его убить, и для того, чтобы выжить и отомстить, готов раскрыть все подробности совершенных им преступлений писателю - полицейскому. Деннису этот материал позволит создать новый бестселлер. Но когда работа над книгой близится к завершению, начинают погибать свидетели...

Качество: DVDRip
Продолжительность: 01:31:15
Формат: AVI
Видео кодек: DivX
Аудио кодек: AC3
Видео: 720x400 (1.80:1), 25 fps, DivX Codec 6.8.3 ~1925 kbps avg, 0.27 bit/pixel
Аудио: 48 kHz, AC3 Dolby Digital, 2/0 (L,R) ch, ~192 kbps

Media Info

Complete name                  : D:\фильмы\Bestseller.1987.DivX.DVDRip.avi
Format                         : AVI
Format/Info                    : Audio Video Interleave
File size                      : 1.36 GiB
Duration                       : 1h 31mn
Overall bit rate               : 2 127 Kbps
Writing application            : VirtualDubMod (build 2540/release)
Writing library                : VirtualDubMod build 2540/release
ID                             : 0
Format                         : MPEG-4 Visual
Format settings, BVOP          : 1
Format settings, QPel          : No
Format settings, GMC           : No warppoints
Format settings, Matrix        : Default (H.263)
Muxing mode                    : Packed bitstream
Codec ID                       : DX50
Codec ID/Hint                  : DivX 5
Duration                       : 1h 31mn
Bit rate                       : 1 925 Kbps
Width                          : 720 pixels
Height                         : 400 pixels
Display aspect ratio           : 16:9
Frame rate                     : 25.000 fps
Color space                    : YUV
Chroma subsampling             : 4:2:0
Bit depth                      : 8 bits
Scan type                      : Progressive
Compression mode               : Lossy
Bits/(Pixel*Frame)             : 0.267
Stream size                    : 1.23 GiB (91%)
Writing library                : DivX 6.8.3-6.8.4 (UTC 2008-06-07)
ID                             : 1
Format                         : AC-3
Format/Info                    : Audio Coding 3
Mode extension                 : CM (complete main)
Codec ID                       : 2000
Duration                       : 1h 31mn
Bit rate mode                  : Constant
Bit rate                       : 192 Kbps
Channel(s)                     : 2 channels
Channel positions              : Front: L R
Sampling rate                  : 48.0 KHz
Bit depth                      : 16 bits
Compression mode               : Lossy
Delay relative to video        : 24ms
Stream size                    : 125 MiB (9%)
Alignment                      : Split accross interleaves
Interleave, duration           : 40 ms (1.00 video frame)
Interleave, preload duration   : 500 ms



Display posts:    

Current time is: 25-Oct 11:26

All times are UTC + 3

You cannot post new topics in this forum
You cannot reply to topics in this forum
You cannot edit your posts in this forum
You cannot delete your posts in this forum
You cannot vote in polls in this forum
You cannot attach files in this forum
You cannot download files in this forum

The site does not give electronic versions of products, and is engaged only in a collecting and cataloguing of the references sent and published at a forum by our readers. If you are the legal owner of any submitted material and do not wish that the reference to it was in our catalogue, contact us and we shall immediately remove her. Files for an exchange on tracker are given by users of a site, and the administration does not bear the responsibility for their maintenance. The request to not fill in the files protected by copyrights, and also files of the illegal maintenance!