[ Today is free to download without increasing Download ]

DL-List and Torrent activity
Ночь страха 2 / Fright Night Part 2«Welcome back...»
Год выпуска: 1988
Страна: США
Производство: Vista Organization
Жанр: ужасы, комедия
Режиссер: Томми Ли Уоллес
В ролях: Родди МакДауэлл, Уильям Рэгсдэйл, Трейси Линд, Джули Кармен, Джон Гриз, Расселл Кларк, Брайан Томпсон, Мерритт Бутрик, Эрни Сабелла, Мэтт Лэндерс
Перевод: Авторский одноголосый, (Сергей Визгунов)
Субтитры: Отсутствуют
Описание: Прошло три года. Чарли Брустер уже считает (не без помощи психотерапевта), что вампиры — лишь плод его воображения. Питер Винсент же уверен в обратном. И вот является Реджина — сестра главного вампира, убитого в прошлой серии. Мстит она жестоко: лишает Питера его шоу, а Чарли превращает в упыря…

Качество: HDTVRip (Исходник: HDTVRip 720p)
Продолжительность: 01:43:41
Формат: AVI
Видео кодек: XviD
Аудио кодек: AC3
Видео: 720x304 (2.37:1), 23.976 fps, ~1686 kbps, 0.32 bit/pixel
Аудио: 48 kHz, AC3 Dolby Digital, 2/0 (L,R) ch, ~192 kbps

Media Info

Complete name                  : D:\фильмы\Noch.straha.2.1988.XviD.HDTVRip.avi
Format                         : AVI
Format/Info                    : Audio Video Interleave
File size                      : 1.37 GiB
Duration                       : 1h 43mn
Overall bit rate               : 1 888 Kbps
Writing application            : VirtualDubMod (build 2540/release)
Writing library                : VirtualDubMod build 2540/release
ID                             : 0
Format                         : MPEG-4 Visual
Format profile                 : Advanced Simple@L5
Format settings, BVOP          : 2
Format settings, QPel          : No
Format settings, GMC           : No warppoints
Format settings, Matrix        : Default (MPEG)
Codec ID                       : XVID
Codec ID/Hint                  : XviD
Duration                       : 1h 43mn
Bit rate                       : 1 687 Kbps
Width                          : 720 pixels
Height                         : 304 pixels
Display aspect ratio           : 2.35:1
Frame rate                     : 23.976 fps
Color space                    : YUV
Chroma subsampling             : 4:2:0
Bit depth                      : 8 bits
Scan type                      : Progressive
Compression mode               : Lossy
Bits/(Pixel*Frame)             : 0.321
Stream size                    : 1.22 GiB (89%)
Writing library                : XviD 1.2.1 (UTC 2008-12-04)
ID                             : 1
Format                         : AC-3
Format/Info                    : Audio Coding 3
Mode extension                 : CM (complete main)
Codec ID                       : 2000
Duration                       : 1h 43mn
Bit rate mode                  : Constant
Bit rate                       : 192 Kbps
Channel(s)                     : 2 channels
Channel positions              : Front: L R
Sampling rate                  : 48.0 KHz
Bit depth                      : 16 bits
Compression mode               : Lossy
Stream size                    : 142 MiB (10%)
Alignment                      : Split accross interleaves
Interleave, duration           : 42 ms (1.00 video frame)
Interleave, preload duration   : 500 ms



Display posts:    

Current time is: 23-Oct 06:13

All times are UTC + 3

You cannot post new topics in this forum
You cannot reply to topics in this forum
You cannot edit your posts in this forum
You cannot delete your posts in this forum
You cannot vote in polls in this forum
You cannot attach files in this forum
You cannot download files in this forum

The site does not give electronic versions of products, and is engaged only in a collecting and cataloguing of the references sent and published at a forum by our readers. If you are the legal owner of any submitted material and do not wish that the reference to it was in our catalogue, contact us and we shall immediately remove her. Files for an exchange on tracker are given by users of a site, and the administration does not bear the responsibility for their maintenance. The request to not fill in the files protected by copyrights, and also files of the illegal maintenance!