[ Сегодня идет свободное скачивание без начисления Download ]


Статистика раздачи
Нет
 
   
 
Top  
 
 
- Охотники на ведьм / Hansel & Gretel: Witch Hunters (2013) BDRip
[Театральная версия / Theatrical Cut]
- Русское название: Охотники на ведьм [Театральная версия]
Оригинальное название: Hansel & Gretel: Witch Hunters [Theatrical Cut]
Год выпуска: 2013
Производство: США, Германия
Жанр: Ужасы, Фэнтези, Боевик
Перевод: Дублированный
Вид субтитров: (SRT): Вшитые отключаемые
Язык субтитров: Русский, English
Режиссер: Томми Виркола
Актеры: Джемма Артертон, Джереми Реннер, Фамке Янссен, Питер Стормаре, Зои Белл, Томас Манн, Ингрид Болсай Бердал, Дерек Мирс, Пихла Виитала, Моник Гандертон, Иоанна Кулиг, Стиг Фроде Хенриксен
Описание фильма:
Едва не погибнув в лапах ужасной ведьмы, Гензель и Гретель стали только сильнее. Одержимые местью, они ведут отчаянную борьбу со злом, даже не подозревая, что их поджидает нечто куда более опасное… собственное прошлое…-
Дата мировой премьеры: 19 января 2013
Дата российской премьеры: 17 января 2013, «Централ Партнершип»
Дата выхода DVD релиза: 10 июня 2013, «Новый Диск»
Продолжительность: 01:27:56
Качество видео: BDRip
Контейнер: MKV
Видео: MPEG-4 AVC/H.264 / 1920 x 806 / 23,976 fps / ~ 10,3 Мбит/сек
Аудио:
1. DTS / Русский / 1510 kbps / 5.1 / 48 kHz / DN -4dB (DUB)
2. Dolby Digital Audio / English / 640 kbps / 5.1 / 48 kHz
-

MediaInfo:

Общее
Уникальный идентификатор : 225524327914342925565919332630045411988 (0xA9AA67D77C640F3784B6E946FA1C4A94)
Полное имя :\Hansel.and.Gretel.Witch.Hunters.1080p.BDRip.NNM-CLUB.mkv
Формат : Matroska
Версия формата : Version 2
Размер файла : 7,63 Гбайт
Продолжительность : 1 ч. 27 м.
Общий поток : 12,4 Мбит/сек
Название фильма : Hansel.and.Gretel.Witch.Hunters.1080p.BDRip.NNM-CLUB
Дата кодирования : UTC 2013-05-21 06:56:10
Программа кодирования : mkvmerge v5.8.0 ('No Sleep / Pillow') built on Sep 2 2012 15:37:04
Библиотека кодирования : libebml v1.2.3 + libmatroska v1.3.0
Видео
Идентификатор : 1
Формат : AVC
Формат/Информация : Advanced Video Codec
Профиль формата : High@L4.1
Параметр CABAC формата : Да
Параметр ReFrames формата : 5 кадров
Идентификатор кодека : V_MPEG4/ISO/AVC
Продолжительность : 1 ч. 27 м.
Битрейт : 10,3 Мбит/сек
Ширина : 1920 пикселей
Высота : 806 пикселей
Соотношение сторон : 2,40:1
Режим частоты кадров : Постоянный
Частота кадров : 23,976 кадра/сек
Цветовое пространство : YUV
Субдискретизация насыщенности : 4:2:0
Битовая глубина : 8 бит
Тип развёртки : Прогрессивная
Бит/(Пиксели*Кадры) : 0.277
Размер потока : 6,16 Гбайт (81%)
Заголовок : Hansel.and.Gretel.Witch.Hunters.1080p.BDRip.NNM-CLUB
Библиотека кодирования : x264 core 130 r2273 b3065e6
Настройки программы : cabac=1 / ref=5 / deblock=1:-3:-3 / analyse=0x3:0x133 / me=umh / subme=11 / psy=1 / psy_rd=1.00:0.10 / mixed_ref=1 / me_range=32 / chroma_me=1 / trellis=2 / 8x8dct=1 / cqm=0 / deadzone=21,11 / fast_pskip=0 / chroma_qp_offset=-3 / threads=12 / lookahead_threads=1 / sliced_threads=0 / nr=0 / decimate=0 / interlaced=0 / bluray_compat=0 / constrained_intra=0 / bframes=6 / b_pyramid=2 / b_adapt=2 / b_bias=0 / direct=3 / weightb=1 / open_gop=0 / weightp=2 / keyint=240 / keyint_min=22 / scenecut=40 / intra_refresh=0 / rc=2pass / mbtree=0 / bitrate=10274 / ratetol=1.0 / qcomp=0.60 / qpmin=0 / qpmax=69 / qpstep=4 / cplxblur=20.0 / qblur=0.5 / ip_ratio=1.40 / pb_ratio=1.30 / aq=1:1.00
Язык : English
Default : Да
Forced : Нет
Аудио #1
Идентификатор : 2
Формат : DTS
Формат/Информация : Digital Theater Systems
Режим : 16
Параметр Endianness формата : Big
Идентификатор кодека : A_DTS
Продолжительность : 1 ч. 27 м.
Вид битрейта : Постоянный
Битрейт : 1509 Кбит/сек
Каналы : 6 каналов
Расположение каналов : Front: L C R, Side: L R, LFE
Частота : 48,0 КГц
Битовая глубина : 24 бит
Метод сжатия : С потерями
Размер потока : 949 Мбайт (12%)
Заголовок : Дубляж
Язык : Russian
Default : Да
Forced : Нет
Аудио #2
Идентификатор : 3
Формат : AC-3
Формат/Информация : Audio Coding 3
Расширение режима : CM (complete main)
Параметр Endianness формата : Big
Идентификатор кодека : A_AC3
Продолжительность : 1 ч. 27 м.
Вид битрейта : Постоянный
Битрейт : 640 Кбит/сек
Каналы : 6 каналов
Расположение каналов : Front: L C R, Side: L R, LFE
Частота : 48,0 КГц
Битовая глубина : 16 бит
Метод сжатия : С потерями
Размер потока : 403 Мбайт (5%)
Заголовок : Оригинал
Язык : English
Default : Нет
Forced : Нет
Текст #1
Идентификатор : 4
Формат : UTF-8
Идентификатор кодека : S_TEXT/UTF8
Идентификатор кодека/Информация : UTF-8 Plain Text
Язык : Russian
Default : Нет
Forced : Нет
Текст #2
Идентификатор : 5
Формат : UTF-8
Идентификатор кодека : S_TEXT/UTF8
Идентификатор кодека/Информация : UTF-8 Plain Text
Язык : English
Default : Нет
Forced : Нет
Меню
00:00:00.000 : en:Chapter 01
00:08:56.827 : en:Chapter 02
00:15:57.790 : en:Chapter 03
00:24:07.112 : en:Chapter 04
00:32:17.936 : en:Chapter 05
00:40:12.868 : en:Chapter 06
00:46:45.636 : en:Chapter 07
00:52:22.097 : en:Chapter 08
01:00:20.033 : en:Chapter 09
01:05:05.651 : en:Chapter 10
01:12:49.656 : en:Chapter 11
01:19:01.820 : en:Chapter 12

Знаете ли Вы, что...

Первоначально на роль Гретель пробовались Дайан Крюгер, Ева Грин и Нуми Рапас.
В своем интервью на фестивале в Каннах в 2011 году Фамке Янссен заявила, что она согласилась на роль предводительницы ведьм, потому что ей нужно было выплачивать долги. Янссен неоднократно упоминала, начиная с 2007 года, что готовит фильм «Плохая мамочка» (2011), где она дебютировала как режиссер/сценарист. Финансирование и распространение фильма пережили нелегкие времена, отчасти из-за экономического кризиса 2008 года. К тому же она практически нигде не снималась в тот период.
Скриншоты:




Время раздачи: круглогодичноИграю на аккордеоне за "Спасибо"

[Цитировать]

DTS супер!!! люблю этот формат аудио, спасибо.

[Цитировать]

Топик был перенесен из форума Новинки кинопроката (HD Video) в форум Зарубежное кино (HD Video)
Bootch



Показать сообщения:    

Текущее время: 10-Дек 00:12

Часовой пояс: UTC + 3


Вы не можете начинать темы
Вы не можете отвечать на сообщения
Вы не можете редактировать свои сообщения
Вы не можете удалять свои сообщения
Вы не можете голосовать в опросах
Вы не можете прикреплять файлы к сообщениям
Вы не можете скачивать файлы

!ВНИМАНИЕ!
Сайт не предоставляет электронные версии произведений, а занимается лишь коллекционированием и каталогизацией ссылок, присылаемых и публикуемых на форуме нашими читателями. Если вы являетесь правообладателем какого-либо представленного материала и не желаете, чтобы ссылка на него находилась в нашем каталоге, свяжитесь с нами, и мы незамедлительно удалим ее. Файлы для обмена на трекере предоставлены пользователями сайта, и администрация не несет ответственности за их содержание. Просьба не заливать файлы, защищенные авторскими правами, а также файлы нелегального содержания!