[ Сегодня идет свободное скачивание без начисления Download ]


Статистика раздачи
Нет
 
   
 
Top  
 
 
-Тайна перевала Дятлова / The Dyatlov Pass Incident (2013) DVD5- Русское название: Тайна перевала Дятлова
Оригинальное название: The Dyatlov Pass Incident
Год выпуска: 2013
Производство: Россия, США
Жанр: Триллер, Ужасы, Фантастика
Перевод: Многоголосый закадровый, профессиональный
Субтитры: Отсутствуют
Дата мировой премьеры: 28 февраля 2013
Дата российской премьеры: 28 февраля 2013, «Двадцатый Век Фокс СНГ»
Дата выхода DVD релиза: 22 апреля 2013, «Новый Диск»
Режиссер: Ренни Харлин
Актеры: Холли Госс, Мэтт Стокоу, Люк Олбрайт, Райан Хоули, Джемма Аткинсон, Николай Бутенин, Ричард Рейд, Анастасия Бурдина, Валерия Федорович, Нелли Нилсен
Описание фильма:
Сюжет фильма основан на реальных событиях, произошедших в 1959-м году. В 2012-м году группа американских студентов, получив грант, отправляется на уральские горы, следуя тем же маршрутом, что и группа Дятлова, чтобы попытаться восстановить картину и разгадать причину таинственной, мистической и до сих пор не разгаданной гибели советских лыжников.

СЭМПЛ
Продолжительность: 01:36:24
Качество видео: DVD5
Видеокодек: MPEG-2
Битрейт видео: ~5728 kb/s
Размер кадра: [email protected]
Аудиокодек: AC3 5.1
Битрейт аудио: 448 kb/s
Доп. материалы: Отсутствуют

MediaInfo

Полное имя : F:\Taina.perevala.Dyatlova.2013.DVD5\VIDEO_TS\VTS_03_2.VOB
Формат : MPEG-PS
Размер файла : 1024 Мбайт
Продолжительность : 22 м.
Общий поток : 6302 Кбит/сек
Видео
Идентификатор : 224 (0xE0)
Формат : MPEG Video
Версия формата : Version 2
Профиль формата : [email protected]
Параметр BVOP формата : Да
Параметр матрицы формата : По умолчанию
Параметры GOP формата : M=3, N=12
Продолжительность : 22 м.
Вид битрейта : Переменный
Битрейт : 5728 Кбит/сек
Номинальный битрейт : 7743 Кбит/сек
Ширина : 720 пикс.
Высота : 576 пикс.
Соотношение сторон : 16:9
Частота кадров : 25,000 кадр/сек
Стандарт вещания : PAL
Цветовое пространство : YUV
Подвыборка цветности : 4:2:0
Битовая глубина : 8 бит
Тип развёртки : Прогрессивная
Порядок развёртки : Нижнее поле первое
Метод сжатия : С потерями
Бит/(Пиксели*Кадры) : 0.553
Размер потока : 931 Мбайт (91%)
Аудио
Идентификатор : 189 (0xBD)-128 (0x80)
Формат : AC-3
Формат/Информация : Audio Coding 3
Расширение режима : CM (complete main)
Режим смешивания : DVD-Video
Продолжительность : 22 м.
Вид битрейта : Постоянный
Битрейт : 448 Кбит/сек
Канал(ы) : 6 канала(ов)
Расположение каналов : Front: L C R, Side: L R, LFE
Частота : 48,0 КГц
Битовая глубина : 16 бит
Метод сжатия : С потерями
Задержка видео : -520 мс.
Размер потока : 72,8 Мбайт (7%)

DVDInfo

Title: Taina.perevala.Dyatlova.2013.DVD5
Size: 4.38 Gb ( 4 587 748,00 KBytes ) - DVD-5
Enabled regions: 1, 2, 3, 4, 5, 6, 7, 8
VTS_01 :
Play Length: 00:00:00
Video: PAL 4:3 (720x576) VBR
Audio:
English (Dolby AC3, 2 ch)
VTS_02 :
Play Length: 00:00:00
Video: PAL 16:9 (720x576) VBR, Auto Letterboxed
Audio:
English (MPEG1, 2 ch)
VTS_03 :
Play Length: 01:36:24
Video: PAL 16:9 (720x576) VBR, Auto Letterboxed
Audio:
Russian (Dolby AC3, 6 ch)
VTS_04 :
Play Length: 00:00:00
Video: PAL 16:9 (720x576) VBR, Auto Letterboxed
Audio:
English (Dolby AC3, 2 ch)
VTS_05 :
Play Length: 00:00:00
Video: PAL 16:9 (720x576) VBR, Auto Letterboxed
Audio:
Russian (LinearPCM, 2 ch)
VTS_06 :
Play Length: 00:00:00
Video: PAL 16:9 (720x576) VBR, Auto Letterboxed
Audio:
English (LinearPCM, 2 ch)
VTS_07 :
Play Length: 00:00:00
Video: PAL 16:9 (720x576) VBR, Auto Letterboxed
Audio:
Russian (LinearPCM, 2 ch)
VTS_08 :
Play Length: 00:00:00
Video: PAL 16:9 (720x576) VBR, Auto Letterboxed
Audio:
English (LinearPCM, 2 ch)
VTS_09 :
Play Length: 00:00:00
Video: PAL 16:9 (720x576) VBR, Auto Letterboxed
Audio:
Russian (LinearPCM, 2 ch)
* Menus Information *
VIDEO_TS Menu
Video:
PAL 4:3 (720x576) VBR
English Language Unit :
Title Menu
VTS_01 Menu
Video:
PAL 16:9 (720x576) VBR
Auto Letterboxed
Audio:
Not specified (LinearPCM, 2 ch)
English Language Unit :
Root Menu
VTS_02 Menu
Video:
PAL 4:3 (720x576) VBR
English Language Unit :
Root Menu
VTS_03 Menu
Video:
PAL 4:3 (720x576) VBR
English Language Unit :
Root Menu
VTS_04 Menu
Video:
PAL 4:3 (720x576) VBR
English Language Unit :
Root Menu
VTS_05 Menu
Video:
PAL 4:3 (720x576) VBR
English Language Unit :
Root Menu
VTS_06 Menu
Video:
PAL 4:3 (720x576) VBR
English Language Unit :
Root Menu
VTS_07 Menu
Video:
PAL 4:3 (720x576) VBR
English Language Unit :
Root Menu
VTS_08 Menu
Video:
PAL 4:3 (720x576) VBR
English Language Unit :
Root Menu
VTS_09 Menu
Video:
PAL 4:3 (720x576) VBR
English Language Unit :
Root Menu

Скриншоты меню

Создание релиза

Обработано в DVDRemake Pro.+Photoshop+Muxman
Видео сжималось 8,7%.
Сжималось связкой DVD Rebuilder + CCE/Procoder в 5 проходов.
Удалёно: анонсы, заставки и предупреждение, русская DTS аудиодорожка. Меню переведено в статику.
Лишние кнопки затерты и закрыты.
Скриншоты:
Время раздачи: 24/7 (до 10 скачавших)

[Цитировать]



Показать сообщения:    

Текущее время: 05-Дек 07:31

Часовой пояс: UTC + 3


Вы не можете начинать темы
Вы не можете отвечать на сообщения
Вы не можете редактировать свои сообщения
Вы не можете удалять свои сообщения
Вы не можете голосовать в опросах
Вы не можете прикреплять файлы к сообщениям
Вы не можете скачивать файлы

!ВНИМАНИЕ!
Сайт не предоставляет электронные версии произведений, а занимается лишь коллекционированием и каталогизацией ссылок, присылаемых и публикуемых на форуме нашими читателями. Если вы являетесь правообладателем какого-либо представленного материала и не желаете, чтобы ссылка на него находилась в нашем каталоге, свяжитесь с нами, и мы незамедлительно удалим ее. Файлы для обмена на трекере предоставлены пользователями сайта, и администрация не несет ответственности за их содержание. Просьба не заливать файлы, защищенные авторскими правами, а также файлы нелегального содержания!