[ Сегодня идет свободное скачивание без начисления Download ]


Статистика раздачи
Нет
 
   
 
Top  
 
 
-Таймлесс. Рубиновая книга / Rubinrot-«Любовь будет вечной, если ты - повелитель времени» -Страна: Германия
Студия: Gei?end?rfer Film- und Fernsehproduktion (GFF), Lieblingsfilm, mem-film, Tele-M?nchen (TMG)
Жанр: фантастика, фэнтези, приключения
Год выпуска: 2013
Мировая премьера: 14 марта 2013
Российская премьера: 14 марта 2013, «Каравелла DDC»
Дата выхода DVD: 22 мая 2013, «Кармен Видео», «Новый Диск»
Дата выхода Blu-Ray: 22 мая 2013, «Кармен Видео», «Новый Диск»
Продолжительность: 01:56:24
Перевод: Профессиональный (дублированный) [Лицензия]
Cубтитры: русские
Оригинальная аудиодорожка: немецкий-Режиссер: Феликс Фуксштайнер / Felix Fuchssteiner-В ролях: Мария Эрих, Янис Нивёнер, Вероника Феррес, Уве Кокиш, Катарина Тальбах, Флориан Бартоломай, Лаура Берлин, Анна Бётхер, Сибулле Каноника, Джастин Дель Корте-Описание: Живущая в Лондоне шестнадцатилетняя Гвендолин Шеферд случайно узнает, что обладает уникальным геном путешественника во времени, который унаследовала от прапрабабушки. Теперь девушка может ежедневно переноситься в прошлое, и с каждым днем загадок становится все больше. Что такое «Тайна Двенадцати»? Кто охотится на путешественников во времени в прошлом? И почему все вокруг думают, что она обладает какой-то «магией ворона»?-Бонусы: Интервью, новинки- -Релиз группы: -Качество: DVD9 R5
Формат: DVD-Video
Видео кодек: MPEG2
Аудио кодек: AC3
Видео: PAL 16:9 (720x576(0.695)) MPEG Video, 25,000 кадр/сек, 7205 Кбит/сек
Аудио #1: Russian (Dolby AC3, 6 ch) 384 Кбит/сек, 48,0 КГц
Аудио #2: Russian (Dolby AC3, 2 ch) 192 Кбит/сек, 48,0 КГц
Аудио #3: Deutsch (Dolby AC3, 6 ch) 384 Кбит/сек, 48,0 КГц--

DVDInfo

Title: Tajmless.Rubinovaja.kniga.2013.DVD9
Size: 7.25 Gb ( 7 607 066,00 KBytes ) - DVD-9
Enabled regions: 1, 2, 3, 4, 5, 6, 7, 8
VTS_01 :
Play Length: 00:00:01+01:56:20+00:00:01
Video: PAL 16:9 (720x576) VBR, Auto Letterboxed
Audio:
Russian (Dolby AC3, 6 ch)
Russian (Dolby AC3, 2 ch)
Deutsch (Dolby AC3, 6 ch)
Subtitles:
Russian
VTS_02 :
Play Length: 00:00:01+00:00:05+00:00:12
Video: PAL 16:9 (720x576) VBR, Auto Letterboxed
Audio:
Russian (Dolby AC3, 6 ch)
VTS_03 :
Play Length: 00:00:01+00:00:08+00:00:01
Video: PAL 16:9 (720x576) VBR, Auto Letterboxed
Audio:
Russian (Dolby AC3, 2 ch)
VTS_04 :
Play Length: 00:00:01+00:02:22+00:00:01
Video: PAL 16:9 (720x576) VBR, Auto Letterboxed
Audio:
Russian (Dolby AC3, 2 ch)
VTS_05 :
Play Length: 00:00:01+00:03:31+00:00:01+00:02:15+00:00:01+00:01:55+00:00:01
Video: PAL 16:9 (720x576) VBR, Auto Letterboxed
Audio:
Russian (Dolby AC3, 2 ch)
* Menus Information *
VIDEO_TS Menu
Video:
NTSC 4:3 (720x480) VBR
Auto Pan&Scan, Auto Letterboxed
Russian Language Unit :
Title Menu
VTS_01 Menu
Video:
PAL 16:9 (720x576) VBR
Auto Letterboxed
Audio:
Not specified (Dolby AC3, 2 ch)
Russian Language Unit :
Root Menu
VTS_02 Menu
Video:
NTSC 4:3 (720x480) VBR
Auto Pan&Scan, Auto Letterboxed
Language Unit :
Subpicture Menu
Angle menu
Language Unit :
Subpicture Menu
Angle menu
Language Unit :
Subpicture Menu
Angle menu
Language Unit :
Subpicture Menu
Angle menu
Language Unit :
Subpicture Menu
Angle menu
VTS_03 Menu
Video:
NTSC 4:3 (720x480) VBR
Auto Pan&Scan, Auto Letterboxed
Language Unit :
Subpicture Menu
Angle menu
Language Unit :
Language Unit :
Audio Menu
Language Unit :
Audio Menu
Language Unit :
Audio Menu
VTS_04 Menu
Video:
NTSC 4:3 (720x480) VBR
Auto Pan&Scan, Auto Letterboxed
Language Unit :
Subpicture Menu
Angle menu
Language Unit :
Subpicture Menu
Angle menu
Language Unit :
Subpicture Menu
Angle menu
Language Unit :
Subpicture Menu
Angle menu
Language Unit :
Subpicture Menu
Angle menu
VTS_05 Menu
Video:
NTSC 4:3 (720x480) VBR
Auto Pan&Scan, Auto Letterboxed
Russian Language Unit :
Root Menu

MediaInfo

Общее
Полное имя : M:\Новинки 2013\Tajmless.Rubinovaja.kniga.2013.DVD9\VIDEO_TS\VTS_01_3.VOB
Формат : MPEG-PS
Размер файла : 1024 Мбайт
Продолжительность : 17 м.
Режим общего битрейта : Переменный
Общий поток : 8330 Кбит/сек
Видео
Идентификатор : 224 (0xE0)
Формат : MPEG Video
Версия формата : Version 2
Профиль формата : Main@Main
Параметр BVOP формата : Да
Параметр матрицы формата : Выборочная
Параметр GOP формата : Variable
Продолжительность : 17 м.
Вид битрейта : Переменный
Битрейт : 7205 Кбит/сек
Максимальный битрейт : 8500 Кбит/сек
Ширина : 720 пикселей
Высота : 576 пикселей
Соотношение сторон : 16:9
Частота кадров : 25,000 кадров/сек
Стандарт вещания : PAL
Цветовое пространство : YUV
Субдискретизация насыщенности : 4:2:0
Битовая глубина : 8 бит
Тип развёртки : Чересстрочная
Порядок развёртки : Верхнее поле первое
Метод сжатия : С потерями
Бит/(Пиксели*Кадры) : 0.695
TimeCode_FirstFrame : 00:35:13:10
TimeCode_Source : Group of pictures header
Размер потока : 885 Мбайт (86%)
Аудио #1
Идентификатор : 189 (0xBD)-128 (0x80)
Формат : AC-3
Формат/Информация : Audio Coding 3
Расширение режима : CM (complete main)
Параметр Endianness формата : Big
Режим смешивания : DVD-Video
Продолжительность : 17 м.
Вид битрейта : Постоянный
Битрейт : 384 Кбит/сек
Каналы : 6 каналов
Расположение каналов : Front: L C R, Side: L R, LFE
Частота : 48,0 КГц
Битовая глубина : 16 бит
Метод сжатия : С потерями
Задержка видео : -808 мс.
Размер потока : 47,2 Мбайт (5%)
Аудио #2
Идентификатор : 189 (0xBD)-129 (0x81)
Формат : AC-3
Формат/Информация : Audio Coding 3
Расширение режима : CM (complete main)
Параметр Endianness формата : Big
Режим смешивания : DVD-Video
Продолжительность : 17 м.
Вид битрейта : Постоянный
Битрейт : 192 Кбит/сек
Каналы : 2 канала
Расположение каналов : Front: L R
Частота : 48,0 КГц
Битовая глубина : 16 бит
Метод сжатия : С потерями
Задержка видео : -744 мс.
Размер потока : 23,6 Мбайт (2%)
Аудио #3
Идентификатор : 189 (0xBD)-130 (0x82)
Формат : AC-3
Формат/Информация : Audio Coding 3
Расширение режима : CM (complete main)
Параметр Endianness формата : Big
Режим смешивания : DVD-Video
Продолжительность : 17 м.
Вид битрейта : Постоянный
Битрейт : 384 Кбит/сек
Каналы : 6 каналов
Расположение каналов : Front: L C R, Side: L R, LFE
Частота : 48,0 КГц
Битовая глубина : 16 бит
Метод сжатия : С потерями
Задержка видео : -808 мс.
Размер потока : 47,2 Мбайт (5%)
Текст
Идентификатор : 189 (0xBD)-32 (0x20)
Формат : RLE
Формат/Информация : Run-length encoding
Режим смешивания : DVD-Video

Скриншоты меню

Скриншоты фильма

Скриншоты доп. материалов


-
-

[Цитировать]



Показать сообщения:    

Текущее время: 11-Дек 14:57

Часовой пояс: UTC + 3


Вы не можете начинать темы
Вы не можете отвечать на сообщения
Вы не можете редактировать свои сообщения
Вы не можете удалять свои сообщения
Вы не можете голосовать в опросах
Вы не можете прикреплять файлы к сообщениям
Вы не можете скачивать файлы

!ВНИМАНИЕ!
Сайт не предоставляет электронные версии произведений, а занимается лишь коллекционированием и каталогизацией ссылок, присылаемых и публикуемых на форуме нашими читателями. Если вы являетесь правообладателем какого-либо представленного материала и не желаете, чтобы ссылка на него находилась в нашем каталоге, свяжитесь с нами, и мы незамедлительно удалим ее. Файлы для обмена на трекере предоставлены пользователями сайта, и администрация не несет ответственности за их содержание. Просьба не заливать файлы, защищенные авторскими правами, а также файлы нелегального содержания!