[ Сегодня идет свободное скачивание без начисления Download ]


Статистика раздачи
Нет
 
   
 
Top  
 
 
-Таймлесс. Рубиновая книга / Rubinrot (2013) BDRip- Русское название: Таймлесс. Рубиновая книга
Оригинальное название: Rubinrot
Год выпуска: 2013
Производство: Германия
Жанр: Фантастика, Фэнтези, Приключения
Перевод: Дублированный (Лицензия)
Субтитры: Вшитые отключаемые
Язык субтитров: Русский
Режиссер: Феликс Фуксштайнер
Актеры: Мария Эрих, Янис Нивёнер, Вероника Феррес, Уве Кокиш, Катарина Тальбах, Флориан Бартоломай, Лаура Берлин, Анна Бётхер, Сибулле Каноника, Джастин Дель Корте
Описание фильма:
Живущая в Лондоне шестнадцатилетняя Гвендолин Шеферд случайно узнает, что обладает уникальным геном путешественника во времени, который унаследовала от прапрабабушки. Теперь девушка может ежедневно переноситься в прошлое, и с каждым днем загадок становится все больше. Кто охотится на путешественников во времени в прошлом? И почему все вокруг думают, что она обладает какой-то «магией ворона»?
Дата мировой премьеры: 14 марта 2013
Дата российской премьеры: 14 марта 2013, «Каравелла DDC»
Дата выхода DVD: 22 мая 2013, «Кармен Видео», «Новый Диск»

Продолжительность: 02:01:11
Качество видео: BDRip [720p]
Видео: 1280x536, ~5070 Кбит/с
Аудио 1: DTS, 6 ch, 755 Кбит/с (Дублированный, Русский)
Аудио 2: DTS, 6 ch, 755 Кбит/с (Оригинал, Немецкий)

MediaInfo:

Общее
Уникальный идентификатор : 239195606959395393571169294733069237692 (0xB3F365F07E79EE6087005C04CD9BBDBC)
Полное имя : Rubinrot.2013.BDRip.720p.mkv
Формат : Matroska
Версия формата : Version 2
Размер файла : 5,68 Гбайт
Продолжительность : 2 ч. 1 м.
Общий поток : 6713 Кбит/сек
Название фильма : IRONCLUB
Дата кодирования : UTC 2013-05-21 11:40:25
Программа кодирования : mkvmerge v5.2.0 ('I can't explain') built on Dec 18 2011 18:12:03
Библиотека кодирования : libebml v1.2.3 + libmatroska v1.3.0
Видео
Идентификатор : 1
Формат : AVC
Формат/Информация : Advanced Video Codec
Профиль формата : High@L4.1
Параметр CABAC формата : Да
Параметр ReFrames формата : 12 кадров
Идентификатор кодека : V_MPEG4/ISO/AVC
Продолжительность : 2 ч. 1 м.
Битрейт : 5070 Кбит/сек
Ширина : 1280 пикселей
Высота : 536 пикселей
Соотношение сторон : 2,40:1
Частота кадров : 24,000 кадра/сек
Цветовое пространство : YUV
Субдискретизация насыщенности : 4:2:0
Битовая глубина : 8 бит
Тип развёртки : Прогрессивная
Бит/(Пиксели*Кадры) : 0.308
Размер потока : 4,29 Гбайт (76%)
Заголовок : Rubinrot 2013 720p BluRay DTS x264-IRONCLUB
Библиотека кодирования : x264 core 130 r2273 b3065e6
Настройки программы : cabac=1 / ref=12 / deblock=1:-3:-3 / analyse=0x3:0x113 / me=umh / subme=11 / psy=1 / psy_rd=1.05:0.00 / mixed_ref=1 / me_range=48 / chroma_me=1 / trellis=2 / 8x8dct=1 / cqm=0 / deadzone=21,11 / fast_pskip=0 / chroma_qp_offset=-2 / threads=12 / lookahead_threads=2 / sliced_threads=0 / nr=0 / decimate=1 / interlaced=0 / bluray_compat=0 / constrained_intra=0 / bframes=9 / b_pyramid=2 / b_adapt=2 / b_bias=0 / direct=3 / weightb=1 / open_gop=0 / weightp=2 / keyint=250 / keyint_min=24 / scenecut=40 / intra_refresh=0 / rc_lookahead=60 / rc=crf / mbtree=0 / crf=16.5 / qcomp=0.80 / qpmin=0 / qpmax=69 / qpstep=4 / vbv_maxrate=50000 / vbv_bufsize=62500 / crf_max=0.0 / nal_hrd=none / ip_ratio=1.30 / pb_ratio=1.20 / aq=1:0.85
Язык : German
Default : Да
Forced : Да
Коэффициенты матрицы : BT.709-5, BT.1361, IEC 61966-2-4 709, SMPTE RP177
Аудио #1
Идентификатор : 2
Формат : DTS
Формат/Информация : Digital Theater Systems
Идентификатор кодека : A_DTS
Продолжительность : 2 ч. 1 м.
Вид битрейта : Постоянный
Битрейт : 755 Кбит/сек
Каналы : 6 каналов
Расположение каналов : Front: L C R, Side: L R, LFE
Частота : 48,0 КГц
Битовая глубина : 16 бит
Метод сжатия : С потерями
Размер потока : 654 Мбайт (11%)
Заголовок : DTS 5.1 @ 768 kbps - Dub, BD RUS
Язык : Russian
Default : Да
Forced : Да
Аудио #2
Идентификатор : 3
Формат : DTS
Формат/Информация : Digital Theater Systems
Идентификатор кодека : A_DTS
Продолжительность : 2 ч. 1 м.
Вид битрейта : Постоянный
Битрейт : 755 Кбит/сек
Каналы : 6 каналов
Расположение каналов : Front: L C R, Side: L R, LFE
Частота : 48,0 КГц
Битовая глубина : 16 бит
Метод сжатия : С потерями
Размер потока : 654 Мбайт (11%)
Заголовок : DTS 5.1 @ 768 kbps
Язык : German
Default : Нет
Forced : Нет
Текст
Идентификатор : 4
Формат : UTF-8
Идентификатор кодека : S_TEXT/UTF8
Идентификатор кодека/Информация : UTF-8 Plain Text
Язык : Russian
Default : Нет
Forced : Нет
Меню
00:00:00.000 : de:00:00:00.000
00:10:19.041 : de:00:10:19.041
00:21:18.500 : de:00:21:18.500
00:29:59.958 : de:00:29:59.958
00:41:16.041 : de:00:41:16.041
00:50:28.416 : de:00:50:28.416
01:01:38.291 : de:01:01:38.291
01:11:21.083 : de:01:11:21.083
01:21:45.958 : de:01:21:45.958
01:30:01.125 : de:01:30:01.125
01:40:53.541 : de:01:40:53.541
01:50:11.291 : de:01:50:11.291
Скриншоты:


Время раздачи: Обычно с 19:00 до 00:00

[Цитировать]

Топик был перенесен из форума Новинки кинопроката (HD Video) в форум Зарубежное кино (HD Video)
Bootch



Показать сообщения:    

Текущее время: 03-Дек 01:15

Часовой пояс: UTC + 3


Вы не можете начинать темы
Вы не можете отвечать на сообщения
Вы не можете редактировать свои сообщения
Вы не можете удалять свои сообщения
Вы не можете голосовать в опросах
Вы не можете прикреплять файлы к сообщениям
Вы не можете скачивать файлы

!ВНИМАНИЕ!
Сайт не предоставляет электронные версии произведений, а занимается лишь коллекционированием и каталогизацией ссылок, присылаемых и публикуемых на форуме нашими читателями. Если вы являетесь правообладателем какого-либо представленного материала и не желаете, чтобы ссылка на него находилась в нашем каталоге, свяжитесь с нами, и мы незамедлительно удалим ее. Файлы для обмена на трекере предоставлены пользователями сайта, и администрация не несет ответственности за их содержание. Просьба не заливать файлы, защищенные авторскими правами, а также файлы нелегального содержания!