[ Сегодня идет свободное скачивание без начисления Download ]


Статистика раздачи
Нет
 
   
 
Top  
 
 
-Цифровая радиостанция / The Numbers Station (2013) HDRip [H264] [LVO]- Русское название: Цифровая радиостанция
Оригинальное название: The Numbers Station
Год выпуска: 2013
Производство: Великобритания | Atlantic Swiss Productions, ContentFilm International, Echo Lake Productions (I), Furst Films, International Pictures One, Le Tax Shelter du Gouvernement Federal de Belgique, Matador Pictures, Piccadilly Pictures, uFilm
Жанр: Боевик, Триллер
Язык: Русский
Перевод: Одноголосый закадровый, любительский
Озвучка / Автор перевода: den904
Субтитры: Отсутствуют
Дата мировой премьеры: 21 марта 2013
Дата российской премьеры: Нет данных
Дата выхода DVD релиза: Нет данных
Режиссер: Каспер Барфоэд / Kasper Barfoed
Актеры: Джон Кьюсак, Малин Акерман, Ханна Мюррэй, Лиам Каннингэм, Люси Гриффитс, Брайан Дик, Ричард Брэйк, Джои Анса, Джо Монтана, Макс Беннет
Описание фильма:
После сбоя, допущенного при выполнении «грязной» работы для правительства США, спецагента отправили на тихую должность, охранять оператора секретной радиостанции в английской глубинке…

Продолжительность: 01:28:56
Качество видео: HDRip-AVC
Видеокодек: H.264
Битрейт видео: ~975 kbps avg
Размер кадра: 880x368 (2.40:1)
Аудиокодек: AC3 2.0
Битрейт аудио: ~192 kbps
Сэмпл: Скачать

log x264

NoImage] x264 [info]: frame I:2136 Avg QP:16.35 size: 28893 PSNR Mean Y:48.37 U:49.29 V:50.73 Avg:48.78 Global:48.20
---[NoImage] x264 [info]: frame P:75666 Avg QP:19.32 size: 6522 PSNR Mean Y:46.97 U:48.25 V:50.35 Avg:47.47 Global:46.76
---[NoImage] x264 [info]: frame B:50133 Avg QP:21.44 size: 1889 PSNR Mean Y:46.01 U:47.84 V:49.88 Avg:46.60 Global:45.79
---[NoImage] x264 [info]: consecutive B-frames: 34.7% 36.7% 6.8% 21.7%
---[NoImage] x264 [info]: mb I I16..4: 17.7% 66.8% 15.5%
---[NoImage] x264 [info]: mb P I16..4: 2.0% 3.1% 0.4% P16..4: 46.1% 12.1% 12.6% 0.2% 0.1% skip:23.5%
---[NoImage] x264 [info]: mb B I16..4: 0.2% 0.2% 0.0% B16..8: 43.9% 4.0% 0.8% direct: 2.0% skip:49.0% L0:42.9% L1:51.9% BI: 5.2%
---[NoImage] x264 [info]: 8x8 transform intra:59.9% inter:69.8%
---[NoImage] x264 [info]: coded y,uvDC,uvAC intra: 55.3% 66.8% 46.0% inter: 15.0% 20.5% 7.1%
---[NoImage] x264 [info]: i16 v,h,dc,p: 54% 17% 11% 19%
---[NoImage] x264 [info]: i8 v,h,dc,ddl,ddr,vr,hd,vl,hu: 9% 8% 12% 10% 13% 13% 13% 11% 12%
---[NoImage] x264 [info]: i4 v,h,dc,ddl,ddr,vr,hd,vl,hu: 11% 10% 8% 10% 14% 12% 12% 10% 13%
---[NoImage] x264 [info]: i8c dc,h,v,p: 44% 26% 17% 13%
---[NoImage] x264 [info]: Weighted P-Frames: Y:4.6% UV:1.1%
---[NoImage] x264 [info]: ref P L0: 59.5% 9.1% 19.0% 8.5% 3.7% 0.3%
---[NoImage] x264 [info]: ref B L0: 78.9% 19.0% 2.1%
---[NoImage] x264 [info]: ref B L1: 95.0% 5.0%
---[NoImage] x264 [info]: SSIM Mean Y:0.9842709 (18.033db)
---[NoImage] x264 [info]: PSNR Mean Y:46.621 U:48.107 V:50.175 Avg:47.153 Global:46.374 kb/s:974.46
---[NoImage] encoded 127935 frames, 9.95 fps, 974.46 kb/s
--[Information] Final statistics
---[Information] [06.05.2013 22:24:05] Video Bitrate Desired: 975 kbit/s
---[Information] [06.05.2013 22:24:05] Video Bitrate Obtained (approximate): 975 kbit/s

MediaInfo

Общее
Уникальный идентификатор : 232430924649527366851991009546864324146 (0xAEDC9159ED16AAA99BBD5069FB0A6E32)
Полное имя : D:\ВИДЕО\Cifrovaja.Radiostancija.2012L1.HDRip.AVC.745MB.mkv
Формат : Matroska
Версия формата : Version 2
Размер файла : 743 Мбайт
Продолжительность : 1 ч. 28 м.
Общий поток : 1168 Кбит/сек
Название фильма : -=RG Torrent Club=-
Дата кодирования : UTC 2013-05-06 16:32:02
Программа кодирования : mkvmerge v5.8.0 ('No Sleep / Pillow') built on Sep 2 2012 15:37:04
Библиотека кодирования : libebml v1.2.3 + libmatroska v1.3.0
Видео
Идентификатор : 1
Формат : AVC
Формат/Информация : Advanced Video Codec
Профиль формата : High@L4.1
Параметр CABAC формата : Да
Параметр ReFrames формата : 4 кадра
Идентификатор кодека : V_MPEG4/ISO/AVC
Продолжительность : 1 ч. 28 м.
Битрейт : 975 Кбит/сек
Ширина : 880 пикселей
Высота : 368 пикселей
Соотношение сторон : 2,40:1
Частота кадров : 23,976 кадра/сек
Цветовое пространство : YUV
Субдискретизация насыщенности : 4:2:0
Битовая глубина : 8 бит
Тип развёртки : Прогрессивная
Бит/(Пиксели*Кадры) : 0.126
Размер потока : 606 Мбайт (82%)
Библиотека кодирования : x264 core 130 r2273 b3065e6
Настройки программы : cabac=1 / ref=4 / deblock=1:0:0 / analyse=0x3:0x133 / me=dia / subme=10 / psy=1 / psy_rd=1.00:0.00 / mixed_ref=1 / me_range=16 / chroma_me=1 / trellis=2 / 8x8dct=1 / cqm=0 / deadzone=21,11 / fast_pskip=1 / chroma_qp_offset=-2 / threads=3 / lookahead_threads=1 / sliced_threads=0 / nr=0 / decimate=1 / interlaced=0 / bluray_compat=0 / constrained_intra=0 / bframes=3 / b_pyramid=2 / b_adapt=1 / b_bias=0 / direct=1 / weightb=1 / open_gop=0 / weightp=2 / keyint=240 / keyint_min=23 / scenecut=40 / intra_refresh=0 / rc_lookahead=40 / rc=2pass / mbtree=1 / bitrate=975 / ratetol=1.0 / qcomp=0.60 / qpmin=0 / qpmax=69 / qpstep=4 / cplxblur=20.0 / qblur=0.5 / vbv_maxrate=62500 / vbv_bufsize=78125 / nal_hrd=none / ip_ratio=1.40 / aq=1:1.00
Default : Да
Forced : Нет
Аудио
Идентификатор : 2
Формат : AC-3
Формат/Информация : Audio Coding 3
Расширение режима : CM (complete main)
Параметр Endianness формата : Big
Идентификатор кодека : A_AC3
Продолжительность : 1 ч. 28 м.
Вид битрейта : Постоянный
Битрейт : 192 Кбит/сек
Каналы : 2 канала
Расположение каналов : Front: L R
Частота : 48,0 КГц
Битовая глубина : 16 бит
Метод сжатия : С потерями
Задержка видео : 24 мс.
Размер потока : 122 Мбайт (16%)
Заголовок : L1
Язык : Russian
Default : Да
Forced : Нет
Скриншоты:

Время раздачи: круглосуточно

[Цитировать]

Топик был перенесен из форума Новинки кинопроката в форум Боевик
Henkok



Показать сообщения:    

Текущее время: 11-Дек 09:13

Часовой пояс: UTC + 3


Вы не можете начинать темы
Вы не можете отвечать на сообщения
Вы не можете редактировать свои сообщения
Вы не можете удалять свои сообщения
Вы не можете голосовать в опросах
Вы не можете прикреплять файлы к сообщениям
Вы не можете скачивать файлы

!ВНИМАНИЕ!
Сайт не предоставляет электронные версии произведений, а занимается лишь коллекционированием и каталогизацией ссылок, присылаемых и публикуемых на форуме нашими читателями. Если вы являетесь правообладателем какого-либо представленного материала и не желаете, чтобы ссылка на него находилась в нашем каталоге, свяжитесь с нами, и мы незамедлительно удалим ее. Файлы для обмена на трекере предоставлены пользователями сайта, и администрация не несет ответственности за их содержание. Просьба не заливать файлы, защищенные авторскими правами, а также файлы нелегального содержания!