[ Сегодня идет свободное скачивание без начисления Download ]


Статистика раздачи
Нет
 
   
 
 
 
-Muddy Waters & The Rolling Stones / Live At The Checkerboard Lounge_1981 (2012) DVD9- Русское название: Muddy Waters & The Rolling Stones
Оригинальное название: Live At The Checkerboard Lounge_1981
Год выпуска: 2012
Жанр: Blues

Из Википедии:

Мадди Уотерс — выдающийся американский блюзмен, который считается основоположником чикагской школы блюза.
Его визитной карточкой стала выпущенная в 1950 году композиция «Mannish Boy». «Rollin' Stone» (Бродяга) станет настоящим символом зарождающейся рок-музыки: компания молодых английских блюз-рокеров позаимствует название песни для своей группы (1962); Боб Дилан, используя этот же образ, создаст настоящий гимн нового поколения — песню «Like a Rolling Stone» (1965), крупнейший в мире рок-журнал назовется в 1967 году так же; наконец, черная ритм-энд-блюз группа «The Temptations» прославится хитом «Papa Was a Rolling Stone» (1972).
Изображение ярко-красных губ и нагло высунутого языка, ставшее фирменной эмблемой The Rolling Stones, придумал не Энди Уорхол, как ошибочно считают многие из-за первого появления данного логотипа на обложке альбома «Sticky Fingers» 1971 года, оформленной Уорхолом (и весьма нестандартно: на конверте пластинки были изображены джинсы от пояса и до колен с настоящей молнией, под которой покупатель обнаруживал тот самый высунутый язык), а менее известным дизайнером Джоном Пашем в 1970 году.
Кстати: песня "Hoochie Coochie Man" — блюзовый стандарт, написанный Вилли Диксоном и впервые исполненный Мадди Уотерсом в 1954 году. Песня достигла восьмой строки в хит-параде Hot R&B/Hip-Hop Songs журнала Billboard.
Hoochie coochie — это сексуально-провокационный танец, ставший широко популярным во время и после Всемирной выставки 1893 года.
В 1984 песня вошла в Зал славы Блюза, в 1998 году она получила награду Grammy Hall of Fame Award, стала частью списка 500 Songs That Shaped Rock and Roll Зала славы рок-н-ролла и заняла 225 место в списке 500 величайших песен по версии журнала Rolling Stone.
В записи оригинальной песни в 1954 году участвовали Мадди Уотерс (соло-вокал, гитара), Вилли Диксон (бас), Литтл Уолтер (губная гармоника), Отис Спэнн (пианино), Джимми Роджерс (гитара) и Фред Белоу (ударные).
После выхода оригинального сингла песня много раз перезаписывалась, в том числе Джимми Смитом, Джими Хендриксом, Steppenwolf, Motorhead, Gordon Blaze и другими.

Треклист:

01. Sweet Little Angel
02. Flip Flop And Fly
03. Introduction
04. You Don't Have To Go
05. Country Boy
06. Baby Please Don't Go
07. Hoochie Coochie Man
08. Long Distance Call
09. Mannish Boy
10. Got My Mojo Workin'
11. Next Time You See Me
12. One Eyed Woman
13. Baby Please Don't Go
14. Clouds In My Heart
15. Champagne And Reefer
16. Instrumental
Продолжительность: 01:36:18

Видеокодек: MPEG-2
Битрейт видео: ~9800 kb/s
Размер кадра: 720x480 (4:3) NTSC
Качество видео: DVD9
Аудиокодек: AC3 2.0; 5,1; DTS
Битрейт аудио: 192; 448; 1510 kb/s
Скриншоты:

Скриншоты меню:

Cover:

MediaInfo:

General
Complete name : D:\Razd\Muddy Waters\MW_RS\VIDEO_TS\VIDEO_TS.BUP
Format : DVD Video
Format profile : Menu
File size : 14.0 KiB
Overall bit rate mode : Variable
Video
ID : 224 (0xE0)
Format : MPEG Video
Format version : Version 2
Bit rate mode : Variable
Width : 720 pixels
Height : 480 pixels
Display aspect ratio : 4:3
Frame rate : 29.970 fps
Standard : NTSC
Compression mode : Lossy
Text
Format : RLE
Format/Info : Run-length encoding
Bit depth : 2 bits
General
Complete name : D:\Razd\Muddy Waters\MW_RS\VIDEO_TS\VIDEO_TS.IFO
Format : DVD Video
Format profile : Menu
File size : 14.0 KiB
Overall bit rate mode : Variable
Video
ID : 224 (0xE0)
Format : MPEG Video
Format version : Version 2
Bit rate mode : Variable
Width : 720 pixels
Height : 480 pixels
Display aspect ratio : 4:3
Frame rate : 29.970 fps
Standard : NTSC
Compression mode : Lossy
Text
Format : RLE
Format/Info : Run-length encoding
Bit depth : 2 bits
General
Complete name : D:\Razd\Muddy Waters\MW_RS\VIDEO_TS\VIDEO_TS.VOB
Format : MPEG-PS
File size : 148 MiB
Duration : 2mn 15s
Overall bit rate : 9 138 Kbps
Video
ID : 224 (0xE0)
Format : MPEG Video
Format version : Version 2
Format profile : [email protected]
Format settings, BVOP : Yes
Format settings, Matrix : Default
Format settings, GOP : M=3, N=9
Duration : 2mn 15s
Bit rate : 8 956 Kbps
Width : 720 pixels
Height : 480 pixels
Display aspect ratio : 4:3
Frame rate : 29.970 fps
Standard : NTSC
Color space : YUV
Chroma subsampling : 4:2:0
Bit depth : 8 bits
Compression mode : Lossy
Bits/(Pixel*Frame) : 0.865
Stream size : 145 MiB (98%)
Menu
General
Complete name : D:\Razd\Muddy Waters\MW_RS\VIDEO_TS\VTS_01_0.BUP
Format : DVD Video
Format profile : Program
File size : 18.0 KiB
Duration : 20s 33ms
Overall bit rate mode : Variable
Overall bit rate : 7 361 bps
Video
ID : 224 (0xE0)
Format : MPEG Video
Format version : Version 2
Duration : 20s 20ms
Bit rate mode : Variable
Width : 720 pixels
Height : 480 pixels
Display aspect ratio : 4:3
Frame rate : 29.970 fps
Standard : NTSC
Compression mode : Lossy
Audio
ID : 128 (0x80)
Format : AC-3
Format/Info : Audio Coding 3
Duration : 20s 33ms
Channel(s) : 6 channels
Sampling rate : 48.0 KHz
Compression mode : Lossy
Language : English
Menu #1
Duration : 20s 33ms
00:00:00.000 : Chapter 1
List (Audio) : 0
Menu #2
Duration : 400ms
00:00:00.000 : Chapter 1
List (Audio) : 0
Menu #3
General
Complete name : D:\Razd\Muddy Waters\MW_RS\VIDEO_TS\VTS_01_0.IFO
Format : DVD Video
Format profile : Program
File size : 18.0 KiB
Duration : 20s 33ms
Overall bit rate mode : Variable
Overall bit rate : 7 361 bps
Video
ID : 224 (0xE0)
Format : MPEG Video
Format version : Version 2
Duration : 20s 20ms
Bit rate mode : Variable
Width : 720 pixels
Height : 480 pixels
Display aspect ratio : 4:3
Frame rate : 29.970 fps
Standard : NTSC
Compression mode : Lossy
Audio
ID : 128 (0x80)
Format : AC-3
Format/Info : Audio Coding 3
Duration : 20s 33ms
Channel(s) : 6 channels
Sampling rate : 48.0 KHz
Compression mode : Lossy
Language : English
Menu #1
Duration : 20s 33ms
00:00:00.000 : Chapter 1
List (Audio) : 0
Menu #2
Duration : 400ms
00:00:00.000 : Chapter 1
List (Audio) : 0
Menu #3
General
Complete name : D:\Razd\Muddy Waters\MW_RS\VIDEO_TS\VTS_01_0.VOB
Format : MPEG-PS
File size : 8.00 KiB
Duration : 33ms
Overall bit rate : 1 986 Kbps
Video
ID : 224 (0xE0)
Format : MPEG Video
Format version : Version 2
Format profile : [email protected]
Format settings, BVOP : No
Format settings, Matrix : Custom
Duration : 33ms
Maximum bit rate : 8 000 Kbps
Width : 720 pixels
Height : 480 pixels
Display aspect ratio : 4:3
Frame rate : 29.970 fps
Standard : NTSC
Color space : YUV
Chroma subsampling : 4:2:0
Bit depth : 8 bits
Scan type : Progressive
Scan order : Top Field First
Compression mode : Lossy
Menu
General
Complete name : D:\Razd\Muddy Waters\MW_RS\VIDEO_TS\VTS_01_1.VOB
Format : MPEG-PS
File size : 15.7 MiB
Duration : 20s 32ms
Overall bit rate mode : Variable
Overall bit rate : 6 560 Kbps
Video
ID : 224 (0xE0)
Format : MPEG Video
Format version : Version 2
Format profile : [email protected]
Format settings, BVOP : Yes
Format settings, Matrix : Custom
Format settings, GOP : Variable
Duration : 83ms
Bit rate mode : Variable
Bit rate : 5 982 Kbps
Maximum bit rate : 8 000 Kbps
Width : 720 pixels
Height : 480 pixels
Display aspect ratio : 4:3
Frame rate : 29.970 fps
Standard : NTSC
Color space : YUV
Chroma subsampling : 4:2:0
Bit depth : 8 bits
Scan type : Interlaced
Scan order : Top Field First
Compression mode : Lossy
Bits/(Pixel*Frame) : 0.578
Stream size : 48.7 KiB (0%)
Audio
ID : 189 (0xBD)-128 (0x80)
Format : AC-3
Format/Info : Audio Coding 3
Mode extension : CM (complete main)
Format settings, Endianness : Big
Muxing mode : DVD-Video
Duration : 20s 32ms
Bit rate mode : Constant
Bit rate : 448 Kbps
Channel(s) : 6 channels
Channel positions : Front: L C R, Side: L R, LFE
Sampling rate : 48.0 KHz
Bit depth : 16 bits
Compression mode : Lossy
Stream size : 1.07 MiB (7%)
Menu
General
Complete name : D:\Razd\Muddy Waters\MW_RS\VIDEO_TS\VTS_02_0.BUP
Format : DVD Video
Format profile : Program
File size : 70.0 KiB
Duration : 1h 36mn
Overall bit rate mode : Variable
Overall bit rate : 99 bps
Video
ID : 224 (0xE0)
Format : MPEG Video
Format version : Version 2
Duration : 1h 36mn
Bit rate mode : Variable
Width : 720 pixels
Height : 480 pixels
Display aspect ratio : 4:3
Frame rate : 29.970 fps
Standard : NTSC
Compression mode : Lossy
Audio #1
ID : 128 (0x80)
Format : AC-3
Format/Info : Audio Coding 3
Duration : 1h 36mn
Channel(s) : 2 channels
Sampling rate : 48.0 KHz
Compression mode : Lossy
Language : English
Audio #2
ID : 129 (0x81)
Format : AC-3
Format/Info : Audio Coding 3
Duration : 1h 36mn
Channel(s) : 6 channels
Sampling rate : 48.0 KHz
Compression mode : Lossy
Language : English
Audio #3
ID : 138 (0x8A)
Format : DTS
Format/Info : Digital Theater Systems
Duration : 1h 36mn
Channel(s) : 6 channels
Sampling rate : 48.0 KHz
Compression mode : Lossy
Language : English
Menu #1
Duration : 1h 36mn
00:00:00.000 : Chapter 1
00:03:46.800 : Chapter 2
00:05:38.733 : Chapter 3
00:07:20.866 : Chapter 4
00:12:59.399 : Chapter 5
00:23:12.665 : Chapter 6
00:34:13.531 : Chapter 7
00:39:02.697 : Chapter 8
00:43:49.663 : Chapter 9
00:55:08.563 : Chapter 10
00:58:26.463 : Chapter 11
01:11:04.296 : Chapter 12
01:20:47.429 : Chapter 13
01:22:47.162 : Chapter 14
01:29:10.728 : Chapter 15
01:35:10.994 : Chapter 16
01:36:12.227 : Chapter 17
List (Audio) : 0 / 1 / 2
Menu #2
Duration : 25s 866ms
00:00:00.000 : Chapter 1
List (Audio) : 0 / 1
General
Complete name : D:\Razd\Muddy Waters\MW_RS\VIDEO_TS\VTS_02_0.IFO
Format : DVD Video
Format profile : Program
File size : 70.0 KiB
Duration : 1h 36mn
Overall bit rate mode : Variable
Overall bit rate : 99 bps
Video
ID : 224 (0xE0)
Format : MPEG Video
Format version : Version 2
Duration : 1h 36mn
Bit rate mode : Variable
Width : 720 pixels
Height : 480 pixels
Display aspect ratio : 4:3
Frame rate : 29.970 fps
Standard : NTSC
Compression mode : Lossy
Audio #1
ID : 128 (0x80)
Format : AC-3
Format/Info : Audio Coding 3
Duration : 1h 36mn
Channel(s) : 2 channels
Sampling rate : 48.0 KHz
Compression mode : Lossy
Language : English
Audio #2
ID : 129 (0x81)
Format : AC-3
Format/Info : Audio Coding 3
Duration : 1h 36mn
Channel(s) : 6 channels
Sampling rate : 48.0 KHz
Compression mode : Lossy
Language : English
Audio #3
ID : 138 (0x8A)
Format : DTS
Format/Info : Digital Theater Systems
Duration : 1h 36mn
Channel(s) : 6 channels
Sampling rate : 48.0 KHz
Compression mode : Lossy
Language : English
Menu #1
Duration : 1h 36mn
00:00:00.000 : Chapter 1
00:03:46.800 : Chapter 2
00:05:38.733 : Chapter 3
00:07:20.866 : Chapter 4
00:12:59.399 : Chapter 5
00:23:12.665 : Chapter 6
00:34:13.531 : Chapter 7
00:39:02.697 : Chapter 8
00:43:49.663 : Chapter 9
00:55:08.563 : Chapter 10
00:58:26.463 : Chapter 11
01:11:04.296 : Chapter 12
01:20:47.429 : Chapter 13
01:22:47.162 : Chapter 14
01:29:10.728 : Chapter 15
01:35:10.994 : Chapter 16
01:36:12.227 : Chapter 17
List (Audio) : 0 / 1 / 2
Menu #2
Duration : 25s 866ms
00:00:00.000 : Chapter 1
List (Audio) : 0 / 1
General
Complete name : D:\Razd\Muddy Waters\MW_RS\VIDEO_TS\VTS_02_0.VOB
Format : MPEG-PS
File size : 348 MiB
Duration : 1mn 5s
Overall bit rate mode : Variable
Overall bit rate : 44.5 Mbps
Video
ID : 224 (0xE0)
Format : MPEG Video
Format version : Version 2
Format profile : [email protected]
Format settings, BVOP : Yes
Format settings, Matrix : Custom
Format settings, GOP : M=3, N=9
Duration : 1mn 5s
Bit rate mode : Variable
Bit rate : 43.4 Mbps
Maximum bit rate : 9 800 Kbps
Width : 720 pixels
Height : 480 pixels
Display aspect ratio : 4:3
Frame rate : 29.970 fps
Standard : NTSC
Color space : YUV
Chroma subsampling : 4:2:0
Bit depth : 8 bits
Scan type : Interlaced
Scan order : Top Field First
Compression mode : Lossy
Bits/(Pixel*Frame) : 4.190
Stream size : 340 MiB (98%)
Audio
ID : 189 (0xBD)-128 (0x80)
Format : AC-3
Format/Info : Audio Coding 3
Mode extension : CM (complete main)
Format settings, Endianness : Big
Muxing mode : DVD-Video
Duration : 1mn 5s
Bit rate mode : Constant
Bit rate : 192 Kbps
Channel(s) : 2 channels
Channel positions : Front: L R
Sampling rate : 48.0 KHz
Bit depth : 16 bits
Compression mode : Lossy
Stream size : 1.50 MiB (0%)
Text
ID : 189 (0xBD)-32 (0x20)
Format : RLE
Format/Info : Run-length encoding
Muxing mode : DVD-Video
Delay relative to video : 1s 835ms
Menu
General
Complete name : D:\Razd\Muddy Waters\MW_RS\VIDEO_TS\VTS_02_1.VOB
Format : MPEG-PS
File size : 1 024 MiB
Duration : 11mn 24s
Overall bit rate mode : Variable
Overall bit rate : 12.6 Mbps
Video
ID : 224 (0xE0)
Format : MPEG Video
Format version : Version 2
Format profile : [email protected]
Format settings, BVOP : Yes
Format settings, Matrix : Custom
Format settings, GOP : M=3, N=9
Duration : 11mn 24s
Bit rate mode : Variable
Bit rate : 10.2 Mbps
Maximum bit rate : 9 800 Kbps
Width : 720 pixels
Height : 480 pixels
Display aspect ratio : 4:3
Frame rate : 29.970 fps
Standard : NTSC
Color space : YUV
Chroma subsampling : 4:2:0
Bit depth : 8 bits
Scan type : Interlaced
Scan order : Top Field First
Compression mode : Lossy
Bits/(Pixel*Frame) : 0.980
Stream size : 828 MiB (81%)
Audio #1
ID : 189 (0xBD)-128 (0x80)
Format : AC-3
Format/Info : Audio Coding 3
Mode extension : CM (complete main)
Format settings, Endianness : Big
Muxing mode : DVD-Video
Duration : 11mn 24s
Bit rate mode : Constant
Bit rate : 192 Kbps
Channel(s) : 2 channels
Channel positions : Front: L R
Sampling rate : 48.0 KHz
Bit depth : 16 bits
Compression mode : Lossy
Stream size : 15.7 MiB (2%)
Audio #2
ID : 189 (0xBD)-129 (0x81)
Format : AC-3
Format/Info : Audio Coding 3
Mode extension : CM (complete main)
Format settings, Endianness : Big
Muxing mode : DVD-Video
Duration : 11mn 24s
Bit rate mode : Constant
Bit rate : 448 Kbps
Channel(s) : 6 channels
Channel positions : Front: L C R, Side: L R, LFE
Sampling rate : 48.0 KHz
Bit depth : 16 bits
Compression mode : Lossy
Stream size : 36.5 MiB (4%)
Audio #3
ID : 189 (0xBD)-138 (0x8A)
Format : DTS
Format/Info : Digital Theater Systems
Mode : 16
Format settings, Endianness : Big
Muxing mode : DVD-Video
Duration : 4s 341ms
Bit rate mode : Constant
Bit rate : 1 510 Kbps
Channel(s) : 6 channels
Channel positions : Front: L C R, Side: L R, LFE
Sampling rate : 48.0 KHz
Bit depth : 16 bits
Compression mode : Lossy
Stream size : 800 KiB (0%)
Menu
General
Complete name : D:\Razd\Muddy Waters\MW_RS\VIDEO_TS\VTS_02_2.VOB
Format : MPEG-PS
File size : 1 024 MiB
Duration : 15mn 26s
Overall bit rate mode : Variable
Overall bit rate : 9 268 Kbps
Video
ID : 224 (0xE0)
Format : MPEG Video
Format version : Version 2
Format profile : [email protected]
Format settings, BVOP : Yes
Format settings, Matrix : Custom
Format settings, GOP : M=3, N=9
Duration : 15mn 26s
Bit rate mode : Variable
Bit rate : 6 934 Kbps
Maximum bit rate : 9 800 Kbps
Width : 720 pixels
Height : 480 pixels
Display aspect ratio : 4:3
Frame rate : 29.970 fps
Standard : NTSC
Color space : YUV
Chroma subsampling : 4:2:0
Bit depth : 8 bits
Scan type : Interlaced
Scan order : Top Field First
Compression mode : Lossy
Bits/(Pixel*Frame) : 0.669
Stream size : 766 MiB (75%)
Audio #1
ID : 189 (0xBD)-128 (0x80)
Format : AC-3
Format/Info : Audio Coding 3
Mode extension : CM (complete main)
Format settings, Endianness : Big
Muxing mode : DVD-Video
Duration : 15mn 26s
Bit rate mode : Constant
Bit rate : 192 Kbps
Channel(s) : 2 channels
Channel positions : Front: L R
Sampling rate : 48.0 KHz
Bit depth : 16 bits
Compression mode : Lossy
Delay relative to video : -227ms
Stream size : 21.2 MiB (2%)
Audio #2
ID : 189 (0xBD)-129 (0x81)
Format : AC-3
Format/Info : Audio Coding 3
Mode extension : CM (complete main)
Format settings, Endianness : Big
Muxing mode : DVD-Video
Duration : 15mn 26s
Bit rate mode : Constant
Bit rate : 448 Kbps
Channel(s) : 6 channels
Channel positions : Front: L C R, Side: L R, LFE
Sampling rate : 48.0 KHz
Bit depth : 16 bits
Compression mode : Lossy
Delay relative to video : -355ms
Stream size : 49.5 MiB (5%)
Audio #3
ID : 189 (0xBD)-138 (0x8A)
Format : DTS
Format/Info : Digital Theater Systems
Mode : 16
Format settings, Endianness : Big
Muxing mode : DVD-Video
Duration : 15mn 26s
Bit rate mode : Constant
Bit rate : 1 510 Kbps
Channel(s) : 6 channels
Channel positions : Front: L C R, Side: L R, LFE
Sampling rate : 48.0 KHz
Bit depth : 16 bits
Compression mode : Lossy
Delay relative to video : -419ms
Stream size : 167 MiB (16%)
Menu
General
Complete name : D:\Razd\Muddy Waters\MW_RS\VIDEO_TS\VTS_02_3.VOB
Format : MPEG-PS
File size : 1 024 MiB
Duration : 15mn 3s
Overall bit rate mode : Variable
Overall bit rate : 9 512 Kbps
Video
ID : 224 (0xE0)
Format : MPEG Video
Format version : Version 2
Format profile : [email protected]
Format settings, BVOP : Yes
Format settings, Matrix : Custom
Format settings, GOP : M=3, N=9
Duration : 15mn 3s
Bit rate mode : Variable
Bit rate : 7 173 Kbps
Maximum bit rate : 9 800 Kbps
Width : 720 pixels
Height : 480 pixels
Display aspect ratio : 4:3
Frame rate : 29.970 fps
Standard : NTSC
Color space : YUV
Chroma subsampling : 4:2:0
Bit depth : 8 bits
Scan type : Interlaced
Scan order : Top Field First
Compression mode : Lossy
Bits/(Pixel*Frame) : 0.692
Stream size : 772 MiB (75%)
Audio #1
ID : 189 (0xBD)-128 (0x80)
Format : AC-3
Format/Info : Audio Coding 3
Mode extension : CM (complete main)
Format settings, Endianness : Big
Muxing mode : DVD-Video
Duration : 15mn 3s
Bit rate mode : Constant
Bit rate : 192 Kbps
Channel(s) : 2 channels
Channel positions : Front: L R
Sampling rate : 48.0 KHz
Bit depth : 16 bits
Compression mode : Lossy
Delay relative to video : -267ms
Stream size : 20.7 MiB (2%)
Audio #2
ID : 189 (0xBD)-129 (0x81)
Format : AC-3
Format/Info : Audio Coding 3
Mode extension : CM (complete main)
Format settings, Endianness : Big
Muxing mode : DVD-Video
Duration : 15mn 3s
Bit rate mode : Constant
Bit rate : 448 Kbps
Channel(s) : 6 channels
Channel positions : Front: L C R, Side: L R, LFE
Sampling rate : 48.0 KHz
Bit depth : 16 bits
Compression mode : Lossy
Delay relative to video : -267ms
Stream size : 48.2 MiB (5%)
Audio #3
ID : 189 (0xBD)-138 (0x8A)
Format : DTS
Format/Info : Digital Theater Systems
Mode : 16
Format settings, Endianness : Big
Muxing mode : DVD-Video
Duration : 15mn 3s
Bit rate mode : Constant
Bit rate : 1 510 Kbps
Channel(s) : 6 channels
Channel positions : Front: L C R, Side: L R, LFE
Sampling rate : 48.0 KHz
Bit depth : 16 bits
Compression mode : Lossy
Delay relative to video : -331ms
Stream size : 163 MiB (16%)
Menu
General
Complete name : D:\Razd\Muddy Waters\MW_RS\VIDEO_TS\VTS_02_4.VOB
Format : MPEG-PS
File size : 1 024 MiB
Duration : 14mn 56s
Overall bit rate mode : Variable
Overall bit rate : 9 587 Kbps
Video
ID : 224 (0xE0)
Format : MPEG Video
Format version : Version 2
Format profile : [email protected]
Format settings, BVOP : Yes
Format settings, Matrix : Custom
Format settings, GOP : M=3, N=9
Duration : 14mn 55s
Bit rate mode : Variable
Bit rate : 7 246 Kbps
Maximum bit rate : 9 800 Kbps
Width : 720 pixels
Height : 480 pixels
Display aspect ratio : 4:3
Frame rate : 29.970 fps
Standard : NTSC
Color space : YUV
Chroma subsampling : 4:2:0
Bit depth : 8 bits
Scan type : Interlaced
Scan order : Top Field First
Compression mode : Lossy
Bits/(Pixel*Frame) : 0.700
Stream size : 774 MiB (76%)
Audio #1
ID : 189 (0xBD)-128 (0x80)
Format : AC-3
Format/Info : Audio Coding 3
Mode extension : CM (complete main)
Format settings, Endianness : Big
Muxing mode : DVD-Video
Duration : 14mn 55s
Bit rate mode : Constant
Bit rate : 192 Kbps
Channel(s) : 2 channels
Channel positions : Front: L R
Sampling rate : 48.0 KHz
Bit depth : 16 bits
Compression mode : Lossy
Delay relative to video : -199ms
Stream size : 20.5 MiB (2%)
Audio #2
ID : 189 (0xBD)-129 (0x81)
Format : AC-3
Format/Info : Audio Coding 3
Mode extension : CM (complete main)
Format settings, Endianness : Big
Muxing mode : DVD-Video
Duration : 14mn 56s
Bit rate mode : Constant
Bit rate : 448 Kbps
Channel(s) : 6 channels
Channel positions : Front: L C R, Side: L R, LFE
Sampling rate : 48.0 KHz
Bit depth : 16 bits
Compression mode : Lossy
Delay relative to video : -295ms
Stream size : 47.9 MiB (5%)
Audio #3
ID : 189 (0xBD)-138 (0x8A)
Format : DTS
Format/Info : Digital Theater Systems
Mode : 16
Format settings, Endianness : Big
Muxing mode : DVD-Video
Duration : 14mn 56s
Bit rate mode : Constant
Bit rate : 1 510 Kbps
Channel(s) : 6 channels
Channel positions : Front: L C R, Side: L R, LFE
Sampling rate : 48.0 KHz
Bit depth : 16 bits
Compression mode : Lossy
Delay relative to video : -349ms
Stream size : 161 MiB (16%)
Menu
General
Complete name : D:\Razd\Muddy Waters\MW_RS\VIDEO_TS\VTS_02_5.VOB
Format : MPEG-PS
File size : 1 024 MiB
Duration : 15mn 10s
Overall bit rate mode : Variable
Overall bit rate : 9 439 Kbps
Video
ID : 224 (0xE0)
Format : MPEG Video
Format version : Version 2
Format profile : [email protected]
Format settings, BVOP : Yes
Format settings, Matrix : Custom
Format settings, GOP : M=3, N=9
Duration : 15mn 9s
Bit rate mode : Variable
Bit rate : 7 101 Kbps
Maximum bit rate : 9 800 Kbps
Width : 720 pixels
Height : 480 pixels
Display aspect ratio : 4:3
Frame rate : 29.970 fps
Standard : NTSC
Color space : YUV
Chroma subsampling : 4:2:0
Bit depth : 8 bits
Scan type : Interlaced
Scan order : Top Field First
Compression mode : Lossy
Bits/(Pixel*Frame) : 0.686
Stream size : 770 MiB (75%)
Audio #1
ID : 189 (0xBD)-128 (0x80)
Format : AC-3
Format/Info : Audio Coding 3
Mode extension : CM (complete main)
Format settings, Endianness : Big
Muxing mode : DVD-Video
Duration : 15mn 10s
Bit rate mode : Constant
Bit rate : 192 Kbps
Channel(s) : 2 channels
Channel positions : Front: L R
Sampling rate : 48.0 KHz
Bit depth : 16 bits
Compression mode : Lossy
Delay relative to video : -395ms
Stream size : 20.8 MiB (2%)
Audio #2
ID : 189 (0xBD)-129 (0x81)
Format : AC-3
Format/Info : Audio Coding 3
Mode extension : CM (complete main)
Format settings, Endianness : Big
Muxing mode : DVD-Video
Duration : 15mn 10s
Bit rate mode : Constant
Bit rate : 448 Kbps
Channel(s) : 6 channels
Channel positions : Front: L C R, Side: L R, LFE
Sampling rate : 48.0 KHz
Bit depth : 16 bits
Compression mode : Lossy
Delay relative to video : -459ms
Stream size : 48.6 MiB (5%)
Audio #3
ID : 189 (0xBD)-138 (0x8A)
Format : DTS
Format/Info : Digital Theater Systems
Mode : 16
Format settings, Endianness : Big
Muxing mode : DVD-Video
Duration : 15mn 10s
Bit rate mode : Constant
Bit rate : 1 510 Kbps
Channel(s) : 6 channels
Channel positions : Front: L C R, Side: L R, LFE
Sampling rate : 48.0 KHz
Bit depth : 16 bits
Compression mode : Lossy
Delay relative to video : -513ms
Stream size : 164 MiB (16%)
Menu
General
Complete name : D:\Razd\Muddy Waters\MW_RS\VIDEO_TS\VTS_02_6.VOB
Format : MPEG-PS
File size : 1 024 MiB
Duration : 14mn 59s
Overall bit rate mode : Variable
Overall bit rate : 9 551 Kbps
Video
ID : 224 (0xE0)
Format : MPEG Video
Format version : Version 2
Format profile : [email protected]
Format settings, BVOP : Yes
Format settings, Matrix : Custom
Format settings, GOP : M=3, N=9
Duration : 14mn 59s
Bit rate mode : Variable
Bit rate : 7 211 Kbps
Maximum bit rate : 9 800 Kbps
Width : 720 pixels
Height : 480 pixels
Display aspect ratio : 4:3
Frame rate : 29.970 fps
Standard : NTSC
Color space : YUV
Chroma subsampling : 4:2:0
Bit depth : 8 bits
Scan type : Interlaced
Scan order : Top Field First
Compression mode : Lossy
Bits/(Pixel*Frame) : 0.696
Stream size : 773 MiB (75%)
Audio #1
ID : 189 (0xBD)-128 (0x80)
Format : AC-3
Format/Info : Audio Coding 3
Mode extension : CM (complete main)
Format settings, Endianness : Big
Muxing mode : DVD-Video
Duration : 14mn 59s
Bit rate mode : Constant
Bit rate : 192 Kbps
Channel(s) : 2 channels
Channel positions : Front: L R
Sampling rate : 48.0 KHz
Bit depth : 16 bits
Compression mode : Lossy
Delay relative to video : -192ms
Stream size : 20.6 MiB (2%)
Audio #2
ID : 189 (0xBD)-129 (0x81)
Format : AC-3
Format/Info : Audio Coding 3
Mode extension : CM (complete main)
Format settings, Endianness : Big
Muxing mode : DVD-Video
Duration : 14mn 59s
Bit rate mode : Constant
Bit rate : 448 Kbps
Channel(s) : 6 channels
Channel positions : Front: L C R, Side: L R, LFE
Sampling rate : 48.0 KHz
Bit depth : 16 bits
Compression mode : Lossy
Delay relative to video : -288ms
Stream size : 48.0 MiB (5%)
Audio #3
ID : 189 (0xBD)-138 (0x8A)
Format : DTS
Format/Info : Digital Theater Systems
Mode : 16
Format settings, Endianness : Big
Muxing mode : DVD-Video
Duration : 14mn 59s
Bit rate mode : Constant
Bit rate : 1 510 Kbps
Channel(s) : 6 channels
Channel positions : Front: L C R, Side: L R, LFE
Sampling rate : 48.0 KHz
Bit depth : 16 bits
Compression mode : Lossy
Delay relative to video : -341ms
Stream size : 162 MiB (16%)
Menu
General
Complete name : D:\Razd\Muddy Waters\MW_RS\VIDEO_TS\VTS_02_7.VOB
Format : MPEG-PS
File size : 592 MiB
Overall bit rate mode : Variable
Video
ID : 224 (0xE0)
Format : MPEG Video
Format version : Version 2
Format profile : [email protected]
Format settings, BVOP : Yes
Format settings, Matrix : Custom
Format settings, GOP : Variable
Bit rate mode : Variable
Maximum bit rate : 9 800 Kbps
Width : 720 pixels
Height : 480 pixels
Display aspect ratio : 4:3
Frame rate : 29.970 fps
Standard : NTSC
Color space : YUV
Chroma subsampling : 4:2:0
Bit depth : 8 bits
Scan type : Interlaced
Scan order : Top Field First
Compression mode : Lossy
Audio #1
ID : 189 (0xBD)-128 (0x80)
Format : AC-3
Format/Info : Audio Coding 3
Mode extension : CM (complete main)
Format settings, Endianness : Big
Muxing mode : DVD-Video
Bit rate mode : Constant
Bit rate : 192 Kbps
Channel(s) : 2 channels
Channel positions : Front: L R
Sampling rate : 48.0 KHz
Bit depth : 16 bits
Compression mode : Lossy
Delay relative to video : -398ms
Audio #2
ID : 189 (0xBD)-129 (0x81)
Format : AC-3
Format/Info : Audio Coding 3
Mode extension : CM (complete main)
Format settings, Endianness : Big
Muxing mode : DVD-Video
Bit rate mode : Constant
Bit rate : 448 Kbps
Channel(s) : 6 channels
Channel positions : Front: L C R, Side: L R, LFE
Sampling rate : 48.0 KHz
Bit depth : 16 bits
Compression mode : Lossy
Delay relative to video : -494ms
Audio #3
ID : 189 (0xBD)-138 (0x8A)
Format : DTS
Format/Info : Digital Theater Systems
Mode : 16
Format settings, Endianness : Big
Muxing mode : DVD-Video
Bit rate mode : Constant
Bit rate : 1 510 Kbps
Channel(s) : 6 channels
Channel positions : Front: L C R, Side: L R, LFE
Sampling rate : 48.0 KHz
Bit depth : 16 bits
Compression mode : Lossy
Delay relative to video : -536ms
Menu
General
Complete name : D:\Razd\Muddy Waters\MW_RS\VIDEO_TS\VTS_03_0.BUP
Format : DVD Video
Format profile : Program
File size : 18.0 KiB
Duration : 3mn 39s
Overall bit rate mode : Variable
Overall bit rate : 672 bps
Video
ID : 224 (0xE0)
Format : MPEG Video
Format version : Version 2
Duration : 3mn 39s
Bit rate mode : Variable
Width : 720 pixels
Height : 480 pixels
Display aspect ratio : 4:3
Frame rate : 29.970 fps
Standard : NTSC
Compression mode : Lossy
Audio
ID : 128 (0x80)
Format : AC-3
Format/Info : Audio Coding 3
Duration : 3mn 39s
Channel(s) : 2 channels
Sampling rate : 48.0 KHz
Compression mode : Lossy
Language : English
Menu
Duration : 3mn 39s
00:00:00.000 : Chapter 1
00:03:38.866 : Chapter 2
List (Audio) : 0
General
Complete name : D:\Razd\Muddy Waters\MW_RS\VIDEO_TS\VTS_03_0.IFO
Format : DVD Video
Format profile : Program
File size : 18.0 KiB
Duration : 3mn 39s
Overall bit rate mode : Variable
Overall bit rate : 672 bps
Video
ID : 224 (0xE0)
Format : MPEG Video
Format version : Version 2
Duration : 3mn 39s
Bit rate mode : Variable
Width : 720 pixels
Height : 480 pixels
Display aspect ratio : 4:3
Frame rate : 29.970 fps
Standard : NTSC
Compression mode : Lossy
Audio
ID : 128 (0x80)
Format : AC-3
Format/Info : Audio Coding 3
Duration : 3mn 39s
Channel(s) : 2 channels
Sampling rate : 48.0 KHz
Compression mode : Lossy
Language : English
Menu
Duration : 3mn 39s
00:00:00.000 : Chapter 1
00:03:38.866 : Chapter 2
List (Audio) : 0
General
Complete name : D:\Razd\Muddy Waters\MW_RS\VIDEO_TS\VTS_03_0.VOB
Format : MPEG-PS
File size : 8.00 KiB
Duration : 33ms
Overall bit rate : 1 986 Kbps
Video
ID : 224 (0xE0)
Format : MPEG Video
Format version : Version 2
Format profile : [email protected]
Format settings, BVOP : No
Format settings, Matrix : Custom
Duration : 33ms
Maximum bit rate : 8 000 Kbps
Width : 720 pixels
Height : 480 pixels
Display aspect ratio : 4:3
Frame rate : 29.970 fps
Standard : NTSC
Color space : YUV
Chroma subsampling : 4:2:0
Bit depth : 8 bits
Scan type : Progressive
Scan order : Top Field First
Compression mode : Lossy
Menu
General
Complete name : D:\Razd\Muddy Waters\MW_RS\VIDEO_TS\VTS_03_1.VOB
Format : MPEG-PS
File size : 191 MiB
Duration : 3mn 39s
Overall bit rate mode : Variable
Overall bit rate : 7 327 Kbps
Video
ID : 224 (0xE0)
Format : MPEG Video
Format version : Version 2
Format profile : [email protected]
Format settings, BVOP : Yes
Format settings, Matrix : Custom
Format settings, GOP : M=3, N=9
Duration : 83ms
Bit rate mode : Variable
Bit rate : 6 989 Kbps
Maximum bit rate : 9 800 Kbps
Width : 720 pixels
Height : 480 pixels
Display aspect ratio : 4:3
Frame rate : 29.970 fps
Standard : NTSC
Color space : YUV
Chroma subsampling : 4:2:0
Bit depth : 8 bits
Scan type : Interlaced
Scan order : Top Field First
Compression mode : Lossy
Bits/(Pixel*Frame) : 0.675
Stream size : 56.9 KiB (0%)
Audio
ID : 189 (0xBD)-128 (0x80)
Format : AC-3
Format/Info : Audio Coding 3
Mode extension : CM (complete main)
Format settings, Endianness : Big
Muxing mode : DVD-Video
Duration : 3mn 39s
Bit rate mode : Constant
Bit rate : 192 Kbps
Channel(s) : 2 channels
Channel positions : Front: L R
Sampling rate : 48.0 KHz
Bit depth : 16 bits
Compression mode : Lossy
Stream size : 5.01 MiB (3%)
Время раздачи: 18:00 - 23:00

[Цитировать]



Показать сообщения:    

Текущее время: 05-Дек 13:35

Часовой пояс: UTC + 3


Вы не можете начинать темы
Вы не можете отвечать на сообщения
Вы не можете редактировать свои сообщения
Вы не можете удалять свои сообщения
Вы не можете голосовать в опросах
Вы не можете прикреплять файлы к сообщениям
Вы не можете скачивать файлы

!ВНИМАНИЕ!
Сайт не предоставляет электронные версии произведений, а занимается лишь коллекционированием и каталогизацией ссылок, присылаемых и публикуемых на форуме нашими читателями. Если вы являетесь правообладателем какого-либо представленного материала и не желаете, чтобы ссылка на него находилась в нашем каталоге, свяжитесь с нами, и мы незамедлительно удалим ее. Файлы для обмена на трекере предоставлены пользователями сайта, и администрация не несет ответственности за их содержание. Просьба не заливать файлы, защищенные авторскими правами, а также файлы нелегального содержания!