[ Сегодня идет свободное скачивание без начисления Download ]


Статистика раздачи
Нет
 
   
 
Top  
 
 
Дети 90-х...-Год выпуска: март 2012
Страна: Россия
Жанр: Драма, криминал, отечественный
Продолжительность: ~15 мин/серия
Кол-во серий/сезонов: 5 серий
Перевод: Оригинал
Субтитры: нет-В ролях: Михаил Носко, Максим Юсупопов, Владимир Давикоза, Алексей Крутько, Виталий Карпов, Вадим Леонтьев, Сергей Степанов, Сергей Аксаев, Алексей Халецкий, Иван Черенцов, Антон Васильев, Сергей Старченков, Пискунова Екатерина
Режиссёр: Антон Крот-Описание: Лихие 90-е… Как много о них сказано в фильмах, в песнях, в книгах, но все равно они продолжают будоражить сознание людей, которым довелось пережить это нелегкое время. Кого-то буквально засасывало в круговорот безденежья и отчаяния, а кто-то, напротив, вылезал из грязи и начинал новую жизнь. К сожалению, многие добивались успеха и благополучия, наживаясь на несчастьях других людей, беззастенчиво обещая золотые горы, а потом исчезая с людскими миллионами. Были и те, кто хитрости предпочитал силу. Именно тогда и появились первые криминальные группы, которые позже выросли в мафиозные сети. И лишь немногие добивались всего своим умом и усердием. Именно об этом и рассказывает криминальный драматический сериал Дети 90-х.
Фильм Дети 90-х- показывают жизнь простых парней, которые, решив завоевать свое место под солнцем, вступают в противоборство с организованной преступностью. Это те бывшие дети, которые росли в непростое для страны время, след которого навсегда запечатлелся в их душах. Именно они проложили новый путь в обход криминалу, благодаря которому доказали, что для того, чтобы иметь деньги, не обязательно убивать и грабить, а надо лишь иметь голову на плечах. Естественно, это не нравится тем, кто привык жить по старинке и добывать деньги нечестным путем. Против таких и выступает компания молодых парней.
В фильме Дети 90-х нет профессиональных актеров, зато есть те, кто отдал этому проекту сердце и душу. Это сериал о настоящей дружбе, о людях, которые не боятся трудностей, а могут, начав с нуля, подняться и жить достойно. Благодаря простоте сюжета данный сериал стремительно набирает популярность в интернете.
-Качество: HDTVRip
Формат: MP4
Видео кодек: MPEG2
Аудио кодек: AAC
Видео: AVC at 3654 Кбит/сек 1920 x 1080 (1.778) at 25.000 fps
Аудио: AAC at 150 Кбит/сек 2 канала, 44,1 КГц-

Скриншоты

Дополнительная информация

Официальная группа Вконтакте http://vk.com/club36784493
фан-сайт http://deti-90.ru

MediaInfo

F:\serial\Дети 90-х\Короткометражный сериал 'Дети 90-х...' (6 серия).mp4
General
Complete name : F:\serial\Дети 90-х\Короткометражный сериал 'Дети 90-х...' (6 серия).mp4
Format : MPEG-4
Format profile : Base Media / Version 2
Codec ID : mp42
File size : 579 MiB
Duration : 20mn 13s
Overall bit rate mode : Variable
Overall bit rate : 3 999 Kbps
Encoded date : UTC 2013-05-01 16:30:41
Tagged date : UTC 2013-05-01 16:30:41
gsst : 0
gstd : 1213798
gssd : BADC23061MH1369144680908853
gshh : r1---sn-5go7dn7d.c.youtube.com
Video #1
ID : 1
Format : AVC
Format/Info : Advanced Video Codec
Format profile : [email protected]
Format settings, CABAC : Yes
Format settings, ReFrames : 1 frame
Format settings, GOP : M=1, N=50
Codec ID : avc1
Codec ID/Info : Advanced Video Coding
Duration : 20mn 13s
Bit rate : 3 804 Kbps
Maximum bit rate : 10.4 Mbps
Width : 1 920 pixels
Height : 1 080 pixels
Display aspect ratio : 16:9
Frame rate mode : Constant
Frame rate : 25.000 fps
Color space : YUV
Chroma subsampling : 4:2:0
Bit depth : 8 bits
Scan type : Progressive
Bits/(Pixel*Frame) : 0.073
Stream size : 550 MiB (95%)
Tagged date : UTC 2013-05-01 16:33:08
Audio #2
ID : 2
Format : AAC
Format/Info : Advanced Audio Codec
Format profile : LC
Codec ID : 40
Duration : 20mn 13s
Bit rate mode : Variable
Bit rate : 192 Kbps
Maximum bit rate : 202 Kbps
Channel(s) : 2 channels
Channel positions : Front: L R
Sampling rate : 44.1 KHz
Compression mode : Lossy
Stream size : 27.8 MiB (5%)
Title : IsoMedia File Produced by Google, 5-11-2011
Encoded date : UTC 2013-05-01 16:32:24
Tagged date : UTC 2013-05-01 16:33:08
В раздачу добавлена 6 серия!
Просьба перекачать торрент!

[Цитировать]



Показать сообщения:    

Текущее время: 04-Дек 15:21

Часовой пояс: UTC + 3


Вы не можете начинать темы
Вы не можете отвечать на сообщения
Вы не можете редактировать свои сообщения
Вы не можете удалять свои сообщения
Вы не можете голосовать в опросах
Вы не можете прикреплять файлы к сообщениям
Вы не можете скачивать файлы

!ВНИМАНИЕ!
Сайт не предоставляет электронные версии произведений, а занимается лишь коллекционированием и каталогизацией ссылок, присылаемых и публикуемых на форуме нашими читателями. Если вы являетесь правообладателем какого-либо представленного материала и не желаете, чтобы ссылка на него находилась в нашем каталоге, свяжитесь с нами, и мы незамедлительно удалим ее. Файлы для обмена на трекере предоставлены пользователями сайта, и администрация не несет ответственности за их содержание. Просьба не заливать файлы, защищенные авторскими правами, а также файлы нелегального содержания!