[ Сегодня идет свободное скачивание без начисления Download ]


Статистика раздачи
Нет
 
   
 
Top  
 
 
-Швы / Stitches (2012) HDRip- Русское название: Швы
Оригинальное название: Stitches
Производство: Ирландия / Fantastic Films Ltd.
Год выпуска: 2012
Жанр: Ужасы-Описание фильма:
В центре событий клоун Ричард Гриндл, по прозвищу «Швы». как то раз клоун, обычно дающий представления только для маленьких детей, попадает на вечеринку отмороженных подростков. «Веселье» заканчивается смертью клоуна. Через много лет бывшие подростки, — теперь уже взрослые дяденьки и тетеньки, — вновь собираются вместе, чтобы хорошо провести время. И в этот вечер, как и много лет назад, на огонек снова заглянул клоун. «Швы». Вот только теперь вместо фокусов в его программе только месть.-Режиссер: Конор МакМахон
Актеры: Томми Найт, Росс Ноубл, Джемма-Ли Деверё, Джон МакДоннел, Оуэн МакКуинн, Лайла Стэк, Лорна Демпси, Каллум Малони, Гарри Биэн-Продолжительность: 01:26:15
Перевод: Любительский (одноголосый закадровый) [den904]
Язык субтитров: Отсутствуют- -Дата мировой премьеры: 19 мая 2012-Видеокодек: MPEG-4 AVC/H.264
Битрейт видео: ~3166 Кбит/сек
Размер кадра: 1024x576
Качество видео: HDRip-AVC
Аудиокодек: AC3 5.1
Битрейт аудио: 448 Кбит/сек

MediaInfo

Общее
Уникальный идентификатор : 255051423313499601506262821994002664597 (0xBFE11E0AC49629F1A45BBF7CC3F84C95)
Полное имя : D:\Торрент раздача\Shvy.2012.L1.HDRip_AVC.mkv
Формат : Matroska
Версия формата : Version 2
Размер файла : 2,18 Гбайт
Продолжительность : 1 ч. 26 м.
Общий поток : 3612 Кбит/сек
Дата кодирования : UTC 2013-05-18 23:57:45
Программа кодирования : mkvmerge v6.1.0 ('Old Devil') built on Mar 2 2013 14:32:37
Библиотека кодирования : libebml v1.3.0 + libmatroska v1.4.0
Видео
Идентификатор : 1
Формат : AVC
Формат/Информация : Advanced Video Codec
Профиль формата : High@L4.1
Параметр CABAC формата : Да
Параметр ReFrames формата : 14 кадров
Идентификатор кодека : V_MPEG4/ISO/AVC
Продолжительность : 1 ч. 26 м.
Битрейт : 3166 Кбит/сек
Ширина : 1024 пикселя
Высота : 576 пикселей
Соотношение сторон : 16:9
Режим частоты кадров : Постоянный
Частота кадров : 23,976 кадра/сек
Цветовое пространство : YUV
Субдискретизация насыщенности : 4:2:0
Битовая глубина : 8 бит
Тип развёртки : Прогрессивная
Бит/(Пиксели*Кадры) : 0.224
Размер потока : 1,86 Гбайт (86%)
Библиотека кодирования : x264 core 130 r2273 b3065e6
Настройки программы : cabac=1 / ref=14 / deblock=1:-1:-1 / analyse=0x3:0x133 / me=umh / subme=10 / psy=1 / psy_rd=1.00:0.10 / mixed_ref=1 / me_range=24 / chroma_me=1 / trellis=2 / 8x8dct=1 / cqm=0 / deadzone=21,11 / fast_pskip=1 / chroma_qp_offset=-3 / threads=6 / lookahead_threads=1 / sliced_threads=0 / nr=15 / decimate=1 / interlaced=0 / bluray_compat=0 / constrained_intra=0 / bframes=8 / b_pyramid=2 / b_adapt=2 / b_bias=0 / direct=3 / weightb=1 / open_gop=0 / weightp=2 / keyint=240 / keyint_min=23 / scenecut=40 / intra_refresh=0 / rc_lookahead=60 / rc=2pass / mbtree=1 / bitrate=3166 / ratetol=1.0 / qcomp=0.60 / qpmin=8 / qpmax=45 / qpstep=4 / cplxblur=20.0 / qblur=0.5 / vbv_maxrate=50000 / vbv_bufsize=62500 / nal_hrd=none / ip_ratio=1.40 / aq=1:1.00
Default : Да
Forced : Нет
Аудио
Идентификатор : 2
Формат : AC-3
Формат/Информация : Audio Coding 3
Расширение режима : CM (complete main)
Параметр Endianness формата : Big
Идентификатор кодека : A_AC3
Продолжительность : 1 ч. 26 м.
Вид битрейта : Постоянный
Битрейт : 448 Кбит/сек
Каналы : 6 каналов
Расположение каналов : Front: L C R, Side: L R, LFE
Частота : 48,0 КГц
Битовая глубина : 16 бит
Метод сжатия : С потерями
Размер потока : 276 Мбайт (12%)
Default : Да
Forced : Нет
Скриншоты:
Время раздачи: 24/7 по возможности

[Цитировать]

Фильмец оочень мозговыносящий))))

[Цитировать]



Показать сообщения:    

Текущее время: 10-Дек 00:22

Часовой пояс: UTC + 3


Вы не можете начинать темы
Вы не можете отвечать на сообщения
Вы не можете редактировать свои сообщения
Вы не можете удалять свои сообщения
Вы не можете голосовать в опросах
Вы не можете прикреплять файлы к сообщениям
Вы не можете скачивать файлы

!ВНИМАНИЕ!
Сайт не предоставляет электронные версии произведений, а занимается лишь коллекционированием и каталогизацией ссылок, присылаемых и публикуемых на форуме нашими читателями. Если вы являетесь правообладателем какого-либо представленного материала и не желаете, чтобы ссылка на него находилась в нашем каталоге, свяжитесь с нами, и мы незамедлительно удалим ее. Файлы для обмена на трекере предоставлены пользователями сайта, и администрация не несет ответственности за их содержание. Просьба не заливать файлы, защищенные авторскими правами, а также файлы нелегального содержания!