[ Сегодня идет свободное скачивание без начисления Download ]


Статистика раздачи
Нет
 
   
 
Top  
 
 
-BBC. Horizon: Видим ли мы одно и то же? / Do You See What I See (2012) SATRip- Режиссер / Телекомпания: BBC
Русское название: BBC. Horizon: Видим ли мы одно и то же?
Оригинальное название: Do You See What I See
Режиссер / Телекомпания: Софи Робинсон
Год выпуска: 2012
Жанр: Документальный, научно-популярный
Выпущено: Великобритания, ВВС
Описание:
Передача из цикла BBC Horizon проливает свет на то, каким видит мир каждый из нас. Несмотря на то, что кажется очевидным будто розы красные, небо голубое, а трава зеленая, цветовое восприятие каждого человека индивидуально — в зависимости от возраста, пола и даже настроения. Среди прочего ученые выяснили скрытую силу цвета: может ли красный помочь вам стать победителем, синий ускорить время и многое другое.
Режиссёр: Софи Робинсон
Продолжительность: 00:50:45
Перевод: Профессиональный многоголосый
Озвучено: Видеофильм-ТВ
Видеокодек: XviD
Битрейт видео: ~ 1648kbps
Размер кадра: 720 x 400
Качество видео: SATRip
Аудиокодек: AC3, 2ch.
Битрейт аудио: 48000Hz stereo 128kbps

MediaInfo:

Формат : AVI
Формат/Информация : Audio Video Interleave
Размер файла : 672 Мбайт
Продолжительность : 50 м.
Общий поток : 1850 Кбит/сек
Программа кодирования : VirtualDubMod 1.5.10.3 | www.virtualdub-fr.org || (build 2550/release)
Библиотека кодирования : VirtualDubMod build 2550/release
Видео
Идентификатор : 0
Формат : MPEG-4 Visual
Профиль формата : Advanced [email protected]
Параметр BVOP формата : 2
Параметр QPel формата : Нет
Параметр GMC формата : Без точки перехода
Параметр матрицы формата : Default (H.263)
Идентификатор кодека : XVID
Идентификатор кодека/Подсказка : XviD
Продолжительность : 50 м.
Битрейт : 1648 Кбит/сек
Ширина : 720 пикселей
Высота : 400 пикселей
Соотношение сторон : 16:9
Частота кадров : 25,000 кадров/сек
Цветовое пространство : YUV
Субдискретизация насыщенности : 4:2:0
Битовая глубина : 8 бит
Тип развёртки : Прогрессивная
Метод сжатия : С потерями
Бит/(Пиксели*Кадры) : 0.229
Размер потока : 598 Мбайт (89%)
Библиотека кодирования : XviD 1.2.1 (UTC 2008-12-04)
Аудио
Идентификатор : 1
Формат : AC-3
Формат/Информация : Audio Coding 3
Расширение режима : CM (complete main)
Идентификатор кодека : 2000
Продолжительность : 50 м.
Вид битрейта : Постоянный
Битрейт : 192 Кбит/сек
Каналы : 2 канала
Расположение каналов : Front: L R
Частота : 48,0 КГц
Битовая глубина : 16 бит
Метод сжатия : С потерями
Размер потока : 69,7 Мбайт (10%)
Выравнивание : Разделение по промежуткам
Продолжительность промежутка : 40 мс. (1,00 видеокадр)
Время предзагрузки промежутка : 500 мс.
Скриншоты: Время раздачи: 24/7. До первых 5 скачавших.
Rip by Bishop

[Цитировать]



Показать сообщения:    

Текущее время: 04-Дек 09:13

Часовой пояс: UTC + 3


Вы не можете начинать темы
Вы не можете отвечать на сообщения
Вы не можете редактировать свои сообщения
Вы не можете удалять свои сообщения
Вы не можете голосовать в опросах
Вы не можете прикреплять файлы к сообщениям
Вы не можете скачивать файлы

!ВНИМАНИЕ!
Сайт не предоставляет электронные версии произведений, а занимается лишь коллекционированием и каталогизацией ссылок, присылаемых и публикуемых на форуме нашими читателями. Если вы являетесь правообладателем какого-либо представленного материала и не желаете, чтобы ссылка на него находилась в нашем каталоге, свяжитесь с нами, и мы незамедлительно удалим ее. Файлы для обмена на трекере предоставлены пользователями сайта, и администрация не несет ответственности за их содержание. Просьба не заливать файлы, защищенные авторскими правами, а также файлы нелегального содержания!