[ Сегодня идет свободное скачивание без начисления Download ]


Статистика раздачи
Нет
 
   
 
 
 
- Нам и не снилось. Рождённые верой (2013.05.22) IPTVRip - Режиссер / Телекомпания: РЕН
Русское название: Нам и не снилось
Год выпуска: 2013
Жанр: Документальный
Описание:
Бизнес на красоте, большие деньги, тайны русского золота, крестные отцы и крестные матери… Это невозможно представить! Невероятные повороты судьбы, уникальные стечения обстоятельств, феноменальные открытия. Такое «Нам и не снилось!». Все 3 часа каждого выпуска – только актуальные острые темы, расследование которых позволит по-новому взглянуть на давно известные события и факты. А также новые версии из цикла «Титаник. Репортаж с того света» и новые факты из жизни Ванги. Каждая серия станет настоящим и даже шокирующим откровением для зрителя!
В выпуске:
Как и кем был создан наш мир? Этот вопрос незапамятных времён будоражил умы всего человечества. Изначально творцом вселенной люди считали некий высший разум, который именовали Богом. Ему поклонялись и покорно следовали его заповедям. Но на вопрос "Кто такой Бог и откуда он появился?" до сих пор точного ответа нет. Так существует ли Бог на самом деле и что по этому поводу говорят учёные? Как выглядит Творец всего живого и где он прячется? Может люди специально придумали Бога, чтобы человеку было во что верить?
1 серия: "По следу создателя"
2 серия: "Небесный суд "
3 серия: "Путь возрождения"
Режиссёр: Екатерина Ефремова
Текст читал: Александр Груздев
Продолжительность: 3 х ~ 00:46:00
Видеокодек: XviD
Битрейт видео: ~1665 kb/s
Размер кадра: 704 x 384
Качество видео: IPTVRip
Аудиокодек: MP3, 2ch.
Битрейт аудио: 128 kb/s

MediaInfo

Формат : AVI
Формат/Информация : Audio Video Interleave
Размер файла : 609 Мбайт
Продолжительность : 47 м.
Общий поток : 1803 Кбит/сек
Программа кодирования : VirtualDubMod 1.5.10.2 (build 2540/release)
Библиотека кодирования : VirtualDub build 32842/release
Видео
Идентификатор : 0
Формат : MPEG-4 Visual
Профиль формата : Advanced [email protected]
Параметр BVOP формата : 2
Параметр QPel формата : Нет
Параметр GMC формата : Без точки перехода
Параметр матрицы формата : Default (H.263)
Режим смешивания : Сжатый битовый поток
Идентификатор кодека : XVID
Идентификатор кодека/Подсказка : XviD
Продолжительность : 47 м.
Битрейт : 1665 Кбит/сек
Ширина : 704 пикселя
Высота : 384 пикселя
Соотношение сторон : 16:9
Частота кадров : 25,000 кадров/сек
Цветовое пространство : YUV
Субдискретизация насыщенности : 4:2:0
Битовая глубина : 8 бит
Тип развёртки : Прогрессивная
Метод сжатия : С потерями
Бит/(Пиксели*Кадры) : 0.246
Размер потока : 563 Мбайт (92%)
Библиотека кодирования : XviD 64
Аудио
Идентификатор : 1
Формат : MPEG Audio
Версия формата : Version 1
Профиль формата : Layer 3
Режим : Joint stereo
Расширение режима : MS Stereo
Идентификатор кодека : 55
Идентификатор кодека/Подсказка : MP3
Продолжительность : 47 м.
Вид битрейта : Постоянный
Битрейт : 128 Кбит/сек
Каналы : 2 канала
Частота : 48,0 КГц
Метод сжатия : С потерями
Размер потока : 43,3 Мбайт (7%)
Выравнивание : Соединение по промежуткам
Продолжительность промежутка : 40 мс. (1,00 видеокадр)
Время предзагрузки промежутка : 504 мс.
Библиотека кодирования : LAME3.90.3ЄЄЄЄЄЄЄЄЄЄ
Формат : AVI
Формат/Информация : Audio Video Interleave
Размер файла : 610 Мбайт
Продолжительность : 47 м.
Общий поток : 1803 Кбит/сек
Программа кодирования : VirtualDubMod 1.5.10.2 (build 2540/release)
Библиотека кодирования : VirtualDub build 32842/release
Видео
Идентификатор : 0
Формат : MPEG-4 Visual
Профиль формата : Advanced [email protected]
Параметр BVOP формата : 2
Параметр QPel формата : Нет
Параметр GMC формата : Без точки перехода
Параметр матрицы формата : Default (H.263)
Режим смешивания : Сжатый битовый поток
Идентификатор кодека : XVID
Идентификатор кодека/Подсказка : XviD
Продолжительность : 47 м.
Битрейт : 1666 Кбит/сек
Ширина : 704 пикселя
Высота : 384 пикселя
Соотношение сторон : 16:9
Частота кадров : 25,000 кадров/сек
Цветовое пространство : YUV
Субдискретизация насыщенности : 4:2:0
Битовая глубина : 8 бит
Тип развёртки : Прогрессивная
Метод сжатия : С потерями
Бит/(Пиксели*Кадры) : 0.246
Размер потока : 563 Мбайт (92%)
Библиотека кодирования : XviD 64
Аудио
Идентификатор : 1
Формат : MPEG Audio
Версия формата : Version 1
Профиль формата : Layer 3
Режим : Joint stereo
Расширение режима : MS Stereo
Идентификатор кодека : 55
Идентификатор кодека/Подсказка : MP3
Продолжительность : 47 м.
Вид битрейта : Постоянный
Битрейт : 128 Кбит/сек
Каналы : 2 канала
Частота : 48,0 КГц
Метод сжатия : С потерями
Размер потока : 43,3 Мбайт (7%)
Выравнивание : Соединение по промежуткам
Продолжительность промежутка : 40 мс. (1,00 видеокадр)
Время предзагрузки промежутка : 504 мс.
Библиотека кодирования : LAME3.90.3ЄЄЄЄЄЄЄЄЄЄ
Формат : AVI
Формат/Информация : Audio Video Interleave
Размер файла : 629 Мбайт
Продолжительность : 48 м.
Общий поток : 1803 Кбит/сек
Программа кодирования : VirtualDubMod 1.5.10.2 (build 2540/release)
Библиотека кодирования : VirtualDub build 32842/release
Видео
Идентификатор : 0
Формат : MPEG-4 Visual
Профиль формата : Advanced [email protected]
Параметр BVOP формата : 2
Параметр QPel формата : Нет
Параметр GMC формата : Без точки перехода
Параметр матрицы формата : Default (H.263)
Режим смешивания : Сжатый битовый поток
Идентификатор кодека : XVID
Идентификатор кодека/Подсказка : XviD
Продолжительность : 48 м.
Битрейт : 1666 Кбит/сек
Ширина : 704 пикселя
Высота : 384 пикселя
Соотношение сторон : 16:9
Частота кадров : 25,000 кадров/сек
Цветовое пространство : YUV
Субдискретизация насыщенности : 4:2:0
Битовая глубина : 8 бит
Тип развёртки : Прогрессивная
Метод сжатия : С потерями
Бит/(Пиксели*Кадры) : 0.246
Размер потока : 581 Мбайт (92%)
Библиотека кодирования : XviD 64
Аудио
Идентификатор : 1
Формат : MPEG Audio
Версия формата : Version 1
Профиль формата : Layer 3
Режим : Joint stereo
Расширение режима : MS Stereo
Идентификатор кодека : 55
Идентификатор кодека/Подсказка : MP3
Продолжительность : 48 м.
Вид битрейта : Постоянный
Битрейт : 128 Кбит/сек
Каналы : 2 канала
Частота : 48,0 КГц
Метод сжатия : С потерями
Размер потока : 44,6 Мбайт (7%)
Выравнивание : Соединение по промежуткам
Продолжительность промежутка : 40 мс. (1,00 видеокадр)
Время предзагрузки промежутка : 504 мс.
Библиотека кодирования : LAME3.90.3ЄЄЄЄЄЄЄЄЄЄ
Скриншоты: Время раздачи: 24/7. До первых 5 скачавших.

[Цитировать]



Показать сообщения:    

Текущее время: 05-Дек 11:32

Часовой пояс: UTC + 3


Вы не можете начинать темы
Вы не можете отвечать на сообщения
Вы не можете редактировать свои сообщения
Вы не можете удалять свои сообщения
Вы не можете голосовать в опросах
Вы не можете прикреплять файлы к сообщениям
Вы не можете скачивать файлы

!ВНИМАНИЕ!
Сайт не предоставляет электронные версии произведений, а занимается лишь коллекционированием и каталогизацией ссылок, присылаемых и публикуемых на форуме нашими читателями. Если вы являетесь правообладателем какого-либо представленного материала и не желаете, чтобы ссылка на него находилась в нашем каталоге, свяжитесь с нами, и мы незамедлительно удалим ее. Файлы для обмена на трекере предоставлены пользователями сайта, и администрация не несет ответственности за их содержание. Просьба не заливать файлы, защищенные авторскими правами, а также файлы нелегального содержания!