[ Today is free to download without increasing Download ]

DL-List and Torrent activity
Закрытые пространства (2008) BDRip
«А как же любовь?»
-Русское название: Закрытые пространства
Год выпуска: 2008
Производство: Россия
Жанр: Комедия, Драма-Режиссер: Игорь Ворскла
Актеры: Леонид Бичевин, Мария Машкова, Александр Ильин, Григорий Калинин, Олег Макаров, Артем Семакин, Нелли Уварова, Анатолий Узденский, Елена Шевченко, Александр Скляр-Описание фильма:
Молодая девушка Вика привозит по заказу пиццу в квартиру на мансардном этаже. Молодой человек расплачивается за заказ, после чего девушка обнаруживает, что дверь заперта. Парень объявляет о планах сексуального насилия в отношении пленницы и тут же начинает предпринимать попытки реализовать замысел… Отношения между героями, начавшись столь агрессивно, претерпят множество неожиданных трансформаций, вплоть до взаимной симпатии.- -Продолжительность: 01:34:32
Качество видео: BDRip |источник: / Blu-ray / 1080р|
Видео: 656x352 (1.85:1), 23.976 fps, XviD 65 ~965 kbps avg, 0.174 bit/pixel
Аудио: 48 kHz, MPEG Layer 3, 2 ch, ~128.00 kbps Constant

Скачать: Семпл


Complete name : Zakrytyi_prostranstva_2008_O_BDRip_745_by_Yarmak.avi
Format : AVI
Format/Info : Audio Video Interleave
File size : 745 MiB
Duration : 1h 34mn
Overall bit rate : 1 102 Kbps
Writing application : VirtualDubMod (build 2540/release)
Writing library : VirtualDubMod build 2540/release
ID : 0
Format : MPEG-4 Visual
Format profile : Advanced Simple@L5
Format settings, BVOP : 1
Format settings, QPel : No
Format settings, GMC : No warppoints
Format settings, Matrix : Custom
Codec ID : XVID
Codec ID/Hint : XviD
Duration : 1h 34mn
Bit rate : 965 Kbps
Width : 656 pixels
Height : 352 pixels
Display aspect ratio : 1.85:1
Frame rate : 23.976 fps
Color space : YUV
Chroma subsampling : 4:2:0
Bit depth : 8 bits
Scan type : Progressive
Compression mode : Lossy
Bits/(Pixel*Frame) : 0.174
Stream size : 652 MiB (88%)
Writing library : XviD 65
ID : 1
Format : MPEG Audio
Format version : Version 1
Format profile : Layer 3
Mode : Joint stereo
Mode extension : MS Stereo
Codec ID : 55
Codec ID/Hint : MP3
Duration : 1h 34mn
Bit rate mode : Constant
Bit rate : 128 Kbps
Channel(s) : 2 channels
Sampling rate : 48.0 KHz
Compression mode : Lossy
Stream size : 86.5 MiB (12%)
Alignment : Aligned on interleaves
Interleave, duration : 42 ms (1.00 video frame)
Interleave, preload duration : 504 ms
-Время раздачи: 24/7 (до 7 скачавших)


Display posts:    

Current time is: 23-Oct 09:09

All times are UTC + 3

You cannot post new topics in this forum
You cannot reply to topics in this forum
You cannot edit your posts in this forum
You cannot delete your posts in this forum
You cannot vote in polls in this forum
You cannot attach files in this forum
You cannot download files in this forum

The site does not give electronic versions of products, and is engaged only in a collecting and cataloguing of the references sent and published at a forum by our readers. If you are the legal owner of any submitted material and do not wish that the reference to it was in our catalogue, contact us and we shall immediately remove her. Files for an exchange on tracker are given by users of a site, and the administration does not bear the responsibility for their maintenance. The request to not fill in the files protected by copyrights, and also files of the illegal maintenance!