[ Сегодня идет свободное скачивание без начисления Download ]


Статистика раздачи
Нет
 
   
 
Top  
 
 
-Повелители вселенной / Masters of the Universe (1987) BDRemux- Русское название: Повелители вселенной
Оригинальное название: Masters of the Universe
Производство: Cannon Group / США
Год выпуска: 1987
Жанр: Фантастика, Боевик, Приключения-Описание фильма:
Некогда прекрасная планета Этерния лежит в развалинах, став жертвой демонического Скелета и его подлых прихлебателей. Герой Этернии Химэн и его сторонники бегут на планету странных существ и обычаев. Это Земля, следущее поле боя со Скелетом и его пособниками!-Режиссер: Гэри Годдард / Gary Goddard
Актеры: Дольф Лундгрен, Фрэнк Ланджелла, Мег Фостер, Билли Барти, Кортни Кокс, Роберт Данкан МакНил, Джон Сайфер, Челси Филд, Джеймс Толкан, Кристина Пиклз-Продолжительность: 01:45:35
Перевод: 2x Профессиональный (Многоголосый закадровый) СТС | ТВ3 + 2x Авторский (одноголосый закадровый) Ю.Живов | А.Гаврилов
Оригинальная аудиодорожка: английский
Язык субтитров: английские, английские SDH
Вид субтитров: Вшитые отключаемые
Чаптеры: есть- -Видеокодек: MPEG-4 AVC/H.264
Битрейт видео: ~20455 kbps
Размер кадра: 1920x1080p
Качество видео: BDRemux 1080p-Аудио 1: Русский AC3 2.0 192 Kbps 48,0 КГц | СТС
Аудио 2: Русский AC3 2.0 192 Kbps 48,0 КГц | ТВ3
Аудио 3: Русский AC3 2.0 192 Kbps 48,0 КГц | Живов
Аудио 4: Русский AC3 2.0 192 Kbps 48,0 КГц | Гаврилов
Аудио 5: Английский DTS-HD MA 2043 kbps / 2.0 / 48 kHz / 24-bit (DTS Core: 5.1 / 48 kHz / 1509 kbps / 24-bit
Аудио 6: Английский AC3 2.0 192 Kbps 48,0 КГц | Комментарии
-

Знаете ли вы, что...

Одну из музыкальных композиций в картине «Фиолетовый туман» (Purple Haze) написал и исполнил легендарный рок-музыкант Джими Хендрикс (Jimi Hendrix).
Роль инопланетного существа Гвилдора, мастера на все руки, создателя «Космического Ключа», была написана, чтобы заменить персонажа Орко из мультсериала «Хи-Мэн и повелители Вселенной» (He-Man and the Masters of the Universe, 1983).
Когда Хи-Мэн висит вниз головой, прячась от воинов Скелетора, его длинные белые волосы не свисают вместе с ним. Ясно, что при съемке просто перевернули кадр.
Почти все здания центра города, показанные в фильме, теперь не существуют, т. к. они были разрушены после ряда землетрясений 1990-х годов.
Большинство сцен картины, включая сражение в музыкальном магазине и сцены со злодеями, торжественно шествующими по главной улице, было снято в городе Уиттьер (Калифорния).
-

Из книги «3500 кинорецензий»

Сергей Кудрявцев 5/10
Фантастико-приключенческая комедия
Планета Этерния (буквально — «вечность» на латыни) процветала до тех пор, пока представители злых сил — Скелетор и его сообщница Ивил-Лин (Лин-Зло) — не отобрали власть у доброй Феи. Благородный воин Масклер по прозвищу Хи-Мен (то есть Он-Человек) в поисках космического Ключа, необходимого для устранения новых тиранов, оказался на Земле, где с помощью юных Джули и Кевина нашёл способ борьбы со Скелетором, чтобы на Этернии опять воцарились мир и счастье.
Очередная космическая сказка, созданная на основе комиксов (персонажи, что называется, слеплены по подобию пластиковых игрушек серии «Экшн Мен»), причислена американским изданием «Видео Муви Гайд» к разряду сугубо детских лент или предназначенных для семейного просмотра. Но и любители развлекательной фантастики, наверно, не без интереса будут следить за разнообразными приключениями героев в отдалённом космосе и на Земле. Хотя, конечно, трудно назвать все эти перипетии оригинальными и увлекательными настолько же, насколько захватывающи и забавны невероятные события в киноцикле «Звёздные войны», которому авторы «Повелителей Вселенной» подражают, вовсе не стесняясь этого. Шведский супермен Дольф Лундгрен, который производил не очень приятное впечатление в своём предшествующем фильме «Рокки IV», на сей раз сыграл положительного персонажа с самыми добрыми намерениями и поступками.
1994
-

MediaInfo:

General
Complete name : E:\NMN Club\Masters.of.the.Universe.1987.1080p.BDREMUX.4xRus.Eng.mkv
Format : Matroska
File size : 17.3 GiB
Duration : 1h 45mn
Overall bit rate : 23.5 Mbps
Encoded date : UTC 2013-05-09 17:48:34
Writing application : mkvmerge v6.2.0 ('Promised Land') built on Apr 28 2013 12:22:01
Writing library : libebml v1.3.0 + libmatroska v1.4.0
Video
ID : 1
Format : AVC
Format/Info : Advanced Video Codec
Format profile : High@L4.1
Format settings, CABAC : Yes
Format settings, ReFrames : 2 frames
Muxing mode : Container profile=Unknown@4.1
Codec ID : V_MPEG4/ISO/AVC
Duration : 1h 45mn
Width : 1 920 pixels
Height : 1 080 pixels
Display aspect ratio : 16:9
Frame rate : 23.976 fps
Resolution : 8 bits
Colorimetry : 4:2:0
Scan type : Progressive
Title : Masters of the Universe 1987
Audio #1
ID : 2
Format : AC-3
Format/Info : Audio Coding 3
Codec ID : A_AC3
Duration : 1h 45mn
Bit rate mode : Constant
Bit rate : 192 Kbps
Channel(s) : 2 channels
Channel positions : L R
Sampling rate : 48.0 KHz
Stream size : 145 MiB (1%)
Title : СТС AC3 2.0 192kbps
Language : Russian
Audio #2
ID : 3
Format : AC-3
Format/Info : Audio Coding 3
Codec ID : A_AC3
Duration : 1h 45mn
Bit rate mode : Constant
Bit rate : 192 Kbps
Channel(s) : 2 channels
Channel positions : L R
Sampling rate : 48.0 KHz
Stream size : 145 MiB (1%)
Title : ТВ3 AC3 2.0 192 kbps
Language : Russian
Audio #3
ID : 4
Format : AC-3
Format/Info : Audio Coding 3
Codec ID : A_AC3
Duration : 1h 45mn
Bit rate mode : Constant
Bit rate : 192 Kbps
Channel(s) : 2 channels
Channel positions : L R
Sampling rate : 48.0 KHz
Stream size : 145 MiB (1%)
Title : Zhivov AC3 2.0 192 kbps
Language : Russian
Audio #4
ID : 5
Format : AC-3
Format/Info : Audio Coding 3
Codec ID : A_AC3
Duration : 1h 45mn
Bit rate mode : Constant
Bit rate : 192 Kbps
Channel(s) : 2 channels
Channel positions : L R
Sampling rate : 48.0 KHz
Stream size : 145 MiB (1%)
Title : Gavrilov AC3 2.0 192 kbps
Language : Russian
Audio #5
ID : 6
Format : DTS
Format/Info : Digital Theater Systems
Format profile : MA
Codec ID : A_DTS
Duration : 1h 45mn
Bit rate mode : Variable
Channel(s) : 2 channels
Channel positions : L R
Sampling rate : 48.0 KHz
Resolution : 24 bits
Title : DTS-HD MA 2.0 2043 kbps
Audio #6
ID : 7
Format : AC-3
Format/Info : Audio Coding 3
Format profile : Dolby Digital
Codec ID : A_AC3
Duration : 1h 45mn
Bit rate mode : Constant
Bit rate : 192 Kbps
Channel(s) : 2 channels
Channel positions : L R
Sampling rate : 48.0 KHz
Stream size : 145 MiB (1%)
Title : Commentary AC3 2.0 192 kbps
Text #1
ID : 8
Format : UTF-8
Codec ID : S_TEXT/UTF8
Codec ID/Info : UTF-8 Plain Text
Text #2
ID : 9
Format : UTF-8
Codec ID : S_TEXT/UTF8
Codec ID/Info : UTF-8 Plain Text
Title : SDH
Menu
00:00:00.000 : en:00:00:00.000
00:02:43.038 : en:00:02:43.038
00:05:24.533 : en:00:05:24.533
00:11:13.631 : en:00:11:13.631
00:16:43.669 : en:00:16:43.669
00:20:09.417 : en:00:20:09.417
00:24:34.515 : en:00:24:34.515
00:27:05.040 : en:00:27:05.040
00:29:45.450 : en:00:29:45.450
00:33:02.772 : en:00:33:02.772
00:36:56.256 : en:00:36:56.256
00:41:14.305 : en:00:41:14.305
00:42:21.873 : en:00:42:21.873
00:45:09.498 : en:00:45:09.498
00:50:12.509 : en:00:50:12.509
00:52:52.961 : en:00:52:52.961
00:55:44.299 : en:00:55:44.299
01:01:18.383 : en:01:01:18.383
01:04:30.450 : en:01:04:30.450
01:06:08.214 : en:01:06:08.214
01:10:49.871 : en:01:10:49.871
01:16:08.814 : en:01:16:08.814
01:21:12.367 : en:01:21:12.367
01:24:21.139 : en:01:24:21.139
01:26:53.667 : en:01:26:53.667
01:29:48.508 : en:01:29:48.508
01:33:01.326 : en:01:33:01.326
01:36:20.900 : en:01:36:20.900
01:39:06.941 : en:01:39:06.941
01:41:18.072 : en:01:41:18.072
-Скриншоты:

Время раздачи: 24/7 - круглосуточно

[Цитировать]



Показать сообщения:    

Текущее время: 07-Дек 11:35

Часовой пояс: UTC + 3


Вы не можете начинать темы
Вы не можете отвечать на сообщения
Вы не можете редактировать свои сообщения
Вы не можете удалять свои сообщения
Вы не можете голосовать в опросах
Вы не можете прикреплять файлы к сообщениям
Вы не можете скачивать файлы

!ВНИМАНИЕ!
Сайт не предоставляет электронные версии произведений, а занимается лишь коллекционированием и каталогизацией ссылок, присылаемых и публикуемых на форуме нашими читателями. Если вы являетесь правообладателем какого-либо представленного материала и не желаете, чтобы ссылка на него находилась в нашем каталоге, свяжитесь с нами, и мы незамедлительно удалим ее. Файлы для обмена на трекере предоставлены пользователями сайта, и администрация не несет ответственности за их содержание. Просьба не заливать файлы, защищенные авторскими правами, а также файлы нелегального содержания!