[ Сегодня идет свободное скачивание без начисления Download ]


Статистика раздачи
Нет
 
   
 
Top  
 
 
-Охотники на ведьм / Hansel & Gretel: Witch Hunters (2013) BDRip-«Новый поворот старой истории»- Русское название: Охотники на ведьм [Театральная версия]
Оригинальное название: Hansel & Gretel: Witch Hunters [Theatrical Cut]
Год выпуска: 2013
Производство: Германия, США | Metro-Goldwyn-Mayer
Жанр: Фэнтези, Ужасы, Боевик
Перевод: Дублированный
Субтитры: Нет.-Дата мировой премьеры: 19 января 2013
Дата российской премьеры: 17 января 2013, «Централ Партнершип»
Дата выхода DVD релиза: 10 июня 2013, «Новый Диск»
Дата выхода Blu-Ray релиза: 10 июня 2013, «Новый Диск»-Режиссер: Томми Виркола
Продюсер: Уилл Феррелл, Бо Флинн, Крис Хенчи
Актеры: Джемма Артертон, Джереми Реннер, Фамке Янссен, Питер Стормаре, Зои Белл, Томас Манн, Ингрид Болсай Бердал, Дерек Мирс, Пихла Виитала, Моник Гандертон, Иоанна Кулиг, Стиг Фроде Хенриксен-Описание фильма:
Едва не погибнув в лапах ужасной ведьмы, Гензель и Гретель стали только сильнее. Одержимые местью, они ведут отчаянную борьбу со злом, даже не подозревая, что их поджидает нечто куда более опасное… собственное прошлое…- -Продолжительность: 01:27:56
Качество видео: BDRip
Формат: AVI
Видео: Xvid 720x304 23.976fps 2 639 Kbps
Аудио: 1 Dolby AC3 48000Hz 6ch 448kbps Русский
Аудио: 2 Dolby AC3 48000Hz 6ch 448kbps Английский-

Знаете ли Вы, что...

Первоначально на роль Гретель пробовались Дайан Крюгер, Ева Грин и Нуми Рапас.
В своем интервью на фестивале в Каннах в 2011 году Фамке Янссен заявила, что она согласилась на роль предводительницы ведьм, потому что ей нужно было выплачивать долги. Янссен неоднократно упоминала, начиная с 2007 года, что готовит фильм «Плохая мамочка» (2011), где она дебютировала как режиссер/сценарист. Финансирование и распространение фильма пережили нелегкие времена, отчасти из-за экономического кризиса 2008 года. К тому же она практически нигде не снималась в тот период.

Рецензия:

Брат с сестрой, дети дровосека Гензель и Гретель, однажды оказались в лесу одни, и набрели на поляну, где стоял домик, сделанный из сладостей. В домике жила ведьма, которая решила сожрать брата, но хитроумная сестра изменила расклад - и в печке оказалась сама зловредная старуха. Сказка отнюдь не детская и довольно жуткая даже в ее изначальном варианте, из сборника братьев Гримм, не случайно не была экранизирована ни студией Disney, ни советскими аниматорами. А вот теперь, когда Голливуд слегка раздвинул рамки дозволенного и занялся производством сказок с пометкой "18+", время настало: встречайте "Охотников на ведьм 3D". Сказка про пряничный домик поведана в прологе, еще до начальных титров, основное веселье начинается уже потом: Гензель и Гретель, не только двойняшки, но и партнеры по бизнесу, бродят по старинной Европе и за деньги истребляют ведьм. Они знают, как взяться за дело, и арсенал у них нешуточный: одна проблема - со времен сладкого домика в лесу у Гензеля развился диабет. В экран летят трехмерные ошметки плоти, хлещет бутафорская кровь, ведьмы складывают свои буйные головы одна за другой, - а публике только того и надо. Более развлекательного и бесстыжего фильма широкий прокат не видел давно: есть такое понятие guilty pleasure, то бишь грешное удовольствие. Так вот, оно перед вами, во всей красе. Финский режиссер Томми Виркола уже проявил себя с лучшей стороны на родине с зомби-трэшем об оживших нацистах "Операция "Мертвый снег", и теперь ему дали не только большой бюджет, но и звезд, в частности, Джереми Реннера и Джемму Артертон на роли Гензеля и Гретель. Говоря по чести, этот факт в фильме не главный, да и вообще второстепенный: например, плохо известная в Штатах красотка Пихла Виитала смотрится не менее эффектно, а тролли и ведьмы, лица которых представляют собой, по сути, маски - еще лучше. Вопрос лишь в том, зачем вся эта вакханалия, ну, кроме, собственно, зрительской радости? Есть ответ и на него: сказки умирают, если время от времени не пересказывать их заново, находя новую и новую аудиторию. Трехмерные "Охотники на ведьм" ее наверняка найдут, а может, и продолжат находить, если кассовый успех будет достаточным для съемок сиквела. Финал позволяет на это надеяться.
Антон Долин.

MediaInfo:

General
Complete name : C:\Охотники на ведьм Hansel & Gretel. Witch Hunters (2013).avi
Format : AVI
Format/Info : Audio Video Interleave
Format profile : OpenDML
File size : 2.18 GiB
Duration : 1h 27mn
Overall bit rate : 3 553 Kbps
Writing application : VirtualDubMod 1.5.10.3 (build 2550/release)
Writing library : VirtualDubMod build 2550/release
Video
ID : 0
Format : MPEG-4 Visual
Format profile : Advanced Simple@L5
Format settings, BVOP : 2
Format settings, QPel : No
Format settings, GMC : No warppoints
Format settings, Matrix : Default (MPEG)
Muxing mode : Packed bitstream
Codec ID : XVID
Codec ID/Hint : XviD
Duration : 1h 27mn
Bit rate : 2 639 Kbps
Width : 720 pixels
Height : 304 pixels
Display aspect ratio : 2.35:1
Frame rate : 23.976 fps
Color space : YUV
Chroma subsampling : 4:2:0
Bit depth : 8 bits
Scan type : Progressive
Compression mode : Lossy
Bits/(Pixel*Frame) : 0.503
Stream size : 1.62 GiB (74%)
Writing library : XviD 64
Audio #1
ID : 1
Format : AC-3
Format/Info : Audio Coding 3
Mode extension : CM (complete main)
Format settings, Endianness : Big
Codec ID : 2000
Duration : 1h 27mn
Bit rate mode : Constant
Bit rate : 448 Kbps
Channel(s) : 6 channels
Channel positions : Front: L C R, Side: L R, LFE
Sampling rate : 48.0 KHz
Bit depth : 16 bits
Compression mode : Lossy
Stream size : 282 MiB (13%)
Alignment : Split accross interleaves
Interleave, duration : 42 ms (1.00 video frame)
Interleave, preload duration : 500 ms
Audio #2
ID : 2
Format : AC-3
Format/Info : Audio Coding 3
Mode extension : CM (complete main)
Format settings, Endianness : Big
Codec ID : 2000
Duration : 1h 27mn
Bit rate mode : Constant
Bit rate : 448 Kbps
Channel(s) : 6 channels
Channel positions : Front: L C R, Side: L R, LFE
Sampling rate : 48.0 KHz
Bit depth : 16 bits
Compression mode : Lossy
Stream size : 282 MiB (13%)
Alignment : Split accross interleaves
Interleave, duration : 42 ms (1.00 video frame)
Interleave, preload duration : 500 ms
Скриншоты:
Время раздачи: (24/7 - круглосуточно)

[Цитировать]

Топик был перенесен из форума Новинки кинопроката в форум Ужасы
Henkok



Показать сообщения:    

Текущее время: 29-Июн 04:47

Часовой пояс: UTC + 6


Вы не можете начинать темы
Вы не можете отвечать на сообщения
Вы не можете редактировать свои сообщения
Вы не можете удалять свои сообщения
Вы не можете голосовать в опросах
Вы не можете прикреплять файлы к сообщениям
Вы не можете скачивать файлы

!ВНИМАНИЕ!
Сайт не предоставляет электронные версии произведений, а занимается лишь коллекционированием и каталогизацией ссылок, присылаемых и публикуемых на форуме нашими читателями. Если вы являетесь правообладателем какого-либо представленного материала и не желаете, чтобы ссылка на него находилась в нашем каталоге, свяжитесь с нами, и мы незамедлительно удалим ее. Файлы для обмена на трекере предоставлены пользователями сайта, и администрация не несет ответственности за их содержание. Просьба не заливать файлы, защищенные авторскими правами, а также файлы нелегального содержания!