[ Сегодня идет свободное скачивание без начисления Download ]


Статистика раздачи
Нет
 
   
 
Top  
 
 
[sh]Пираты Карибского моря: Проклятие Черной жемчужины / Pirates of the Caribbean: The Curse of the Black Pearl[/sh]
«Over 3000 Islands of Paradise -- For Some it's A Blessing -- For Others... It's A Curse.» ? Год выпуска: 2003
? Страна: США
? Производство: Walt Disney Pictures
? Жанр: фэнтези, боевик, приключения
? Режиссер: Гор Вербински
? В ролях: Джонни Депп, Джеффри Раш, Орландо Блум, Кира Найтли, Джек Девенпорт, Джонатан Прайс, Ли Аренберг, Маккензи Крук, Дэмиан О’Хейр, Джиллз Нью
? Перевод: Профессиональный (полное дублирование)
? Субтитры: Отсутствуют
? Описание: Жизнь харизматичного авантюриста, капитана Джека Воробья, полная увлекательных приключений, резко меняется, когда его заклятый враг — капитан Барбосса — похищает корабль Джека, Черную Жемчужину, а затем нападает на Порт Ройал и крадет прекрасную дочь губернатора, Элизабет Свонн.
Друг детства Элизабет, Уилл Тернер, вместе с Джеком возглавляет спасательную экспедицию на самом быстром корабле Британии, в попытке вызволить девушку из плена и заодно отобрать у злодея Черную Жемчужину. Вслед за этой парочкой отправляется амбициозный коммодор Норрингтон, который к тому же числится женихом Элизабет.
Однако Уилл не знает, что над Барбоссой висит вечное проклятие, при лунном свете превращающее его с командой в живых скелетов. Проклятье будет снято лишь тогда, когда украденное золото Ацтеков будет возвращено пиратами на старое место.

? Качество: НDRip [исходник BDRip 1080p]
? Продолжительность: 02:23:14
? Формат: AVI
? Видео кодек: XviD
? Аудио кодек: MP3
? Видео: 688x288 (2.40:1), 24.000 fps, XviD, ~698 kbps avg, 0.147 bit/pixel
? Аудио: 48 kHz, MPEG Layer 3, 2 ch, ~128.00 kbps avg - |DUB|
Премьера (мир): 28 июня 2003
Премьера (РФ): 20 августа 2003, «Каскад»
Релиз на DVD: 26 апреля 2011, «Уолт Дисней Компани СНГ»

Media Info

General
Complete name                    : E:\_проги_\Проги для создания сэмплов DVD,AVI\Пираты Карибского моря - квадрология\Pirary. Proklyatie chernoy jemchujiny.HDRip.avi
Format                           : AVI
Format/Info                      : Audio Video Interleave
File size                        : 856 MiB
Duration                         : 2h 23mn
Overall bit rate                 : 835 Kbps
Writing application              : VirtualDubMod 1.5.10.2 (build 2540/release)
Writing library                  : VirtualDubMod build 2540/release
Video
ID                               : 0
Format                           : MPEG-4 Visual
Format profile                   : Advanced Simple@L5
Format settings, BVOP            : 1
Format settings, QPel            : No
Format settings, GMC             : No warppoints
Format settings, Matrix          : Custom
Codec ID                         : XVID
Codec ID/Hint                    : XviD
Duration                         : 2h 23mn
Bit rate                         : 698 Kbps
Width                            : 688 pixels
Height                           : 288 pixels
Display aspect ratio             : 2.40:1
Frame rate                       : 23.976 fps
Color space                      : YUV
Chroma subsampling               : 4:2:0
Bit depth                        : 8 bits
Scan type                        : Progressive
Compression mode                 : Lossy
Bits/(Pixel*Frame)               : 0.147
Stream size                      : 715 MiB (84%)
Writing library                  : XviD 1.2.1 (UTC 2008-12-04)
Audio
ID                               : 1
Format                           : MPEG Audio
Format version                   : Version 1
Format profile                   : Layer 3
Codec ID                         : 55
Codec ID/Hint                    : MP3
Duration                         : 2h 23mn
Bit rate mode                    : Constant
Bit rate                         : 128 Kbps
Channel(s)                       : 2 channels
Sampling rate                    : 48.0 KHz
Compression mode                 : Lossy
Stream size                      : 131 MiB (15%)
Alignment                        : Aligned on interleaves
Interleave, duration             : 42 ms (1.00 video frame)
Interleave, preload duration     : 504 ms
Writing library                  : LAME3.97
Encoding settings                : -m s -V 4 -q 2 -lowpass 17 -b 128

Скриншоты



[sh]Пираты Карибского моря: Сундук мертвеца / Pirates of the Caribbean: Dead Man's Chest[/sh]
«Jack is back! Never trust a pirate!» ? Год выпуска: 2006
? Страна: США
? Производство: Walt Disney Pictures
? Жанр: фэнтези, боевик, приключения
? Режиссер: Гор Вербински
? В ролях: Джонни Депп, Джеффри Раш, Орландо Блум, Кира Найтли, Джек Девенпорт, Джонатан Прайс, Ли Аренберг, Маккензи Крук, Дэмиан О’Хейр, Джиллз Нью
? Перевод: Профессиональный (полное дублирование)
? Субтитры: Отсутствуют
? Описание: Вновь оказавшись в ирреальном мире, лихой капитан Джек Воробей неожиданно узнает, что является должником легендарного капитана «Летучего Голландца» Дэйви Джонса. Джек должен в кратчайшие сроки решить эту проблему, иначе ему грозит вечное проклятие и рабское существование после смерти. Вдобавок ко всему, срывается свадьба Уилла Тернера и Элизабет Суонн, которые вынуждены составить Джеку компанию в его злоключениях…

? Качество: НDRip [исходник BDRip 1080p]
? Продолжительность: 02:30:39
? Формат: AVI
? Видео кодек: XviD
? Аудио кодек: MP3
? Видео: 688x288 (2.40:1), 23.976 fps, XviD, ~704 kbps avg, 0.148 bit/pixel
? Аудио: 48 kHz, MPEG Layer 3, 2 ch, ~128.00 kbps avg - |DUB|
Премьера (мир): 24 июня 2006
Премьера (РФ): 13 июля 2006, «Каскад»
Релиз на DVD: 3 апреля 2012, «ВС трейд»

Media Info

General
Complete name                    : E:\_проги_\Проги для создания сэмплов DVD,AVI\Пираты Карибского моря - квадрология\Piraty. Sunduk mertvetca.HDRip.avi
Format                           : AVI
Format/Info                      : Audio Video Interleave
File size                        : 906 MiB
Duration                         : 2h 30mn
Overall bit rate                 : 841 Kbps
Writing application              : VirtualDubMod 1.5.10.2 (build 2540/release)
Writing library                  : VirtualDubMod build 2540/release
Video
ID                               : 0
Format                           : MPEG-4 Visual
Format profile                   : Advanced Simple@L5
Format settings, BVOP            : 1
Format settings, QPel            : No
Format settings, GMC             : No warppoints
Format settings, Matrix          : Custom
Codec ID                         : XVID
Codec ID/Hint                    : XviD
Duration                         : 2h 30mn
Bit rate                         : 704 Kbps
Width                            : 688 pixels
Height                           : 288 pixels
Display aspect ratio             : 2.40:1
Frame rate                       : 23.976 fps
Color space                      : YUV
Chroma subsampling               : 4:2:0
Bit depth                        : 8 bits
Scan type                        : Progressive
Compression mode                 : Lossy
Bits/(Pixel*Frame)               : 0.148
Stream size                      : 758 MiB (84%)
Writing library                  : XviD 1.2.1 (UTC 2008-12-04)
Audio
ID                               : 1
Format                           : MPEG Audio
Format version                   : Version 1
Format profile                   : Layer 3
Codec ID                         : 55
Codec ID/Hint                    : MP3
Duration                         : 2h 30mn
Bit rate mode                    : Constant
Bit rate                         : 128 Kbps
Channel(s)                       : 2 channels
Sampling rate                    : 48.0 KHz
Compression mode                 : Lossy
Stream size                      : 138 MiB (15%)
Alignment                        : Aligned on interleaves
Interleave, duration             : 42 ms (1.00 video frame)
Interleave, preload duration     : 504 ms
Writing library                  : LAME3.97
Encoding settings                : -m s -V 4 -q 2 -lowpass 17 -b 128

Скриншоты



[sh]Пираты Карибского моря: На краю Света / Pirates of the Caribbean: At World's End[/sh]
«At the End of the World, the Adventure Begins» ? Год выпуска: 2007
? Страна: США
? Производство: Walt Disney Pictures
? Жанр: фэнтези, боевик, приключения
? Режиссер: Гор Вербински
? В ролях: Джонни Депп, Джеффри Раш, Орландо Блум, Кира Найтли, Джек Девенпорт, Джонатан Прайс, Ли Аренберг, Маккензи Крук, Дэмиан О’Хейр, Джиллз Нью
? Перевод: Профессиональный (полное дублирование)
? Субтитры: Отсутствуют
? Описание: Новые приключения Джека Воробья и его друзей Уилла Тернера и Элизабет Суонн. На этот раз Уиллу и Элизабет придется объединиться с самим Капитаном Барбоссой для того, чтобы отправиться на край света и спасти своего друга — Джека. Ситуация осложняется тем, что Элизабет попадает к сингапурским пиратам…

? Качество: НDRip [исходник BDRip 1080p]
? Продолжительность: 02:48:30
? Формат: AVI
? Видео кодек: XviD
? Аудио кодек: MP3
? Видео: 688x288 (2.37:1), 24.000 fps, XviD, ~698 kbps avg, 0.147 bit/pixel
? Аудио: 48 kHz, MPEG Layer 3, 2 ch, ~128.00 kbps avg - |DUB|
Премьера (мир): 19 мая 2007
Премьера (РФ): 24 мая 2007, «BVSPR»
Релиз на DVD: 3 апреля 2012, «ВС трейд»

Media Info

General
Complete name                    : E:\_проги_\Проги для создания сэмплов DVD,AVI\Пираты Карибского моря - квадрология\Pirary. Na kray sveta.HDRip.avi
Format                           : AVI
Format/Info                      : Audio Video Interleave
File size                        : 1 007 MiB
Duration                         : 2h 48mn
Overall bit rate                 : 836 Kbps
Writing application              : VirtualDubMod 1.5.10.2 (build 2540/release)
Writing library                  : VirtualDubMod build 2540/release
Video
ID                               : 0
Format                           : MPEG-4 Visual
Format profile                   : Advanced Simple@L5
Format settings, BVOP            : 1
Format settings, QPel            : No
Format settings, GMC             : No warppoints
Format settings, Matrix          : Custom
Codec ID                         : XVID
Codec ID/Hint                    : XviD
Duration                         : 2h 48mn
Bit rate                         : 698 Kbps
Width                            : 688 pixels
Height                           : 288 pixels
Display aspect ratio             : 2.40:1
Frame rate                       : 23.976 fps
Color space                      : YUV
Chroma subsampling               : 4:2:0
Bit depth                        : 8 bits
Scan type                        : Progressive
Compression mode                 : Lossy
Bits/(Pixel*Frame)               : 0.147
Stream size                      : 842 MiB (84%)
Writing library                  : XviD 1.2.1 (UTC 2008-12-04)
Audio
ID                               : 1
Format                           : MPEG Audio
Format version                   : Version 1
Format profile                   : Layer 3
Codec ID                         : 55
Codec ID/Hint                    : MP3
Duration                         : 2h 48mn
Bit rate mode                    : Constant
Bit rate                         : 128 Kbps
Channel(s)                       : 2 channels
Sampling rate                    : 48.0 KHz
Compression mode                 : Lossy
Stream size                      : 154 MiB (15%)
Alignment                        : Aligned on interleaves
Interleave, duration             : 42 ms (1.00 video frame)
Interleave, preload duration     : 504 ms
Writing library                  : LAME3.97
Encoding settings                : -m s -V 4 -q 2 -lowpass 17 -b 128

Скриншоты



[sh]Пираты Карибского моря: На странных берегах / Pirates of the Caribbean: On Stranger Tides[/sh]
«Live Forever or Die Trying...» ? Год выпуска: 2011
? Страна: США
? Производство: Walt Disney Pictures
? Жанр: фэнтези, боевик, комедия, приключения
? Режиссер: Роб Маршалл
? В ролях: Джонни Депп, Джеффри Раш, Орландо Блум, Кира Найтли, Джек Девенпорт, Джонатан Прайс, Ли Аренберг, Маккензи Крук, Дэмиан О’Хейр, Джиллз Нью
? Перевод: Профессиональный (полное дублирование)
? Субтитры: Отсутствуют
? Описание: В новой истории о поисках истины, предательстве, вечной молодости и смертельной опасности капитану Джеку Воробью предстоит столкнуться с женщиной из своего прошлого Анжеликой. До самого конца не будет понятно, связывает ли их настоящая любовь, или же Анжелика искусно притворяется, чтобы вместе с Джеком добраться до таинственного источника вечной молодости.
Она силой принуждает капитана Джека Воробья взойти на корабль «Месть Королевы Анны», которым управляет коварный злодей Черная Борода. Наш герой оказывается в ситуации, когда он не знает, чего ему бояться больше — ужасного злодея или же свою давнюю подругу.

? Качество: НDRip [исходник BDRip 1080p]
? Продолжительность: 02:16:23
? Формат: AVI
? Видео кодек: XviD
? Аудио кодек: MP3
? Видео: 688x288 (2.40:1), 23.976 fps, XviD, ~709 kbps avg, 0.149 bit/pixel
? Аудио: 48 kHz, MPEG Layer 3, 2 ch, ~128.00 kbps avg - |DUB|
Премьера (мир): 7 мая 2011
Премьера (РФ): 18 мая 2011, «WDSSPR» 3D
Релиз на DVD: 6 сентября 2011, «Уолт Дисней Компани СНГ»

Media Info

General
Complete name                    : E:\_проги_\Проги для создания сэмплов DVD,AVI\Пираты Карибского моря - квадрология\Piraty. Na strannyh beregah. HDRip.avi
Format                           : AVI
Format/Info                      : Audio Video Interleave
File size                        : 825 MiB
Duration                         : 2h 16mn
Overall bit rate                 : 846 Kbps
Writing application              : VirtualDubMod 1.5.10.2 (build 2540/release)
Writing library                  : VirtualDubMod build 2540/release
Video
ID                               : 0
Format                           : MPEG-4 Visual
Format profile                   : Advanced Simple@L5
Format settings, BVOP            : 1
Format settings, QPel            : No
Format settings, GMC             : No warppoints
Format settings, Matrix          : Custom
Codec ID                         : XVID
Codec ID/Hint                    : XviD
Duration                         : 2h 16mn
Bit rate                         : 709 Kbps
Width                            : 688 pixels
Height                           : 288 pixels
Display aspect ratio             : 2.40:1
Frame rate                       : 23.976 fps
Color space                      : YUV
Chroma subsampling               : 4:2:0
Bit depth                        : 8 bits
Scan type                        : Progressive
Compression mode                 : Lossy
Bits/(Pixel*Frame)               : 0.149
Stream size                      : 691 MiB (84%)
Writing library                  : XviD 1.2.1 (UTC 2008-12-04)
Audio
ID                               : 1
Format                           : MPEG Audio
Format version                   : Version 1
Format profile                   : Layer 3
Codec ID                         : 55
Codec ID/Hint                    : MP3
Duration                         : 2h 16mn
Bit rate mode                    : Constant
Bit rate                         : 128 Kbps
Channel(s)                       : 2 channels
Sampling rate                    : 48.0 KHz
Compression mode                 : Lossy
Stream size                      : 125 MiB (15%)
Alignment                        : Aligned on interleaves
Interleave, duration             : 42 ms (1.00 video frame)
Interleave, preload duration     : 504 ms
Writing library                  : LAME3.97
Encoding settings                : -m s -V 4 -q 2 -lowpass 17 -b 128

Скриншоты





Последний раз редактировалось: STEFAN (2012-12-08 19:59), всего редактировалось 2 раз(а)

[Цитировать]



Показать сообщения:    

Текущее время: 10-Дек 19:40

Часовой пояс: UTC + 3


Вы не можете начинать темы
Вы не можете отвечать на сообщения
Вы не можете редактировать свои сообщения
Вы не можете удалять свои сообщения
Вы не можете голосовать в опросах
Вы не можете прикреплять файлы к сообщениям
Вы не можете скачивать файлы

!ВНИМАНИЕ!
Сайт не предоставляет электронные версии произведений, а занимается лишь коллекционированием и каталогизацией ссылок, присылаемых и публикуемых на форуме нашими читателями. Если вы являетесь правообладателем какого-либо представленного материала и не желаете, чтобы ссылка на него находилась в нашем каталоге, свяжитесь с нами, и мы незамедлительно удалим ее. Файлы для обмена на трекере предоставлены пользователями сайта, и администрация не несет ответственности за их содержание. Просьба не заливать файлы, защищенные авторскими правами, а также файлы нелегального содержания!