[ Сегодня идет свободное скачивание без начисления Download ]


Статистика раздачи
Скачал: [ 1 ]
 
   
 
Top  
 
 
Чужой район 2
Сезон 2, эпизоды с 1 по 32 (из 32)
-- Год выпуска: 2013
Производство: «Триикс Медиа»
Жанр: детектив, криминал
Продолжительность: ~00:44:00 серия
Субтитры: отсутствуют
Режиссёр: Максим Бриус
В ролях: Денис Рожков, Кирилл Полухин, Игорь Головин, Зоя Буряк, Сергей Колос, Екатерина Проскурина, Юрий Архангельский, Алексей Нилов, Вячеслав Аркунов, Алексей Одинг, Оксана Скакун, Сергей Черапкин, Вадим Лымарь, Александр Стекольников, Сергей Рублёв, Елена Лопаткина, Геннадий Макоев, Дмитрий Белов, Сергей Малюгов, Инна Корнышева, Ринат Муталлапов, Артур Федынко, Павел Гончаров
Описание: После безупречной службы в должности инспектора полиции на окраине города Фролов готовится к триумфальному возвращению в центральный район, откуда его несправедливо изгнали. Но просто так отпустить друга не готов его напарник Свистунов. В прощальный вечер друзья решили немного покуролесить: начали с «очень вкусного самогона», потом устроили драку в ночном клубе, угнали трамвай и где-то посеяли служебное удостоверение Андрея. Утром, после разговора с начальством, Фролов понял: долгожданное повышение откладывается до лучших времен…
[kp]756251[/kp]
Качество: SATRip
Формат: AVI
Видео кодек: XviD
Аудио кодек: MP3
Видео: 704x384 (1.85:1), 25 fps, XviD build 50 ~1600 kbps avg, 0.241 bit/pixel
Аудио: 48 kHz, MPEG Layer 3, 2 ch, ~128.00 kbps avg
Реклама отсутствует

Внимание! Раздача ведётся путём добавления новых серий!

Внимание! Раздача ведётся путём добавления новых серий; при каждом добавлении создётся новый торрент.
Чтобы начать докачку новой серии, пользователям необходимо сделать следующее:
1) остановить скачивание
2) удалить старый торрент у себя из клиента (старые серии удалять не надо)
3) скачать новый торрент и запустить его у себя в клиенте вместо старого, при этом указать клиенту путь в старую папку куда и должно происходить скачивание новых серий.
Ваш клиент при этом должен произвести хеширование (проверку) старой папки (если не производит сам - помогите ему сделать это), и будет докачивать только те серии которых у вас ещё нет. Старые серии при этом не удаляются, а продолжают раздаваться!
Eсли вы уже удалили старые серии, то предотвратить повторную закачку старых серий можно, отжав галочку в соответствовавших местах при запуске нового торрента.

MI

General
Complete name : Chuzhoi.raion.2.2013.SATRip\Chuzhoi.raion.2_02.seriya.avi
Format : AVI
Format/Info : Audio Video Interleave
File size : 551 MiB
Duration : 43mn 39s
Overall bit rate : 1 765 Kbps
Writing application : VirtualDubMod 1.5.10.2 (build 2540/release)
Writing library : VirtualDubMod build 2540/release
Video
ID : 0
Format : MPEG-4 Visual
Format profile : Advanced Simple@L5
Format settings, BVOP : 1
Format settings, QPel : No
Format settings, GMC : No warppoints
Format settings, Matrix : Custom
Codec ID : XVID
Codec ID/Hint : XviD
Duration : 43mn 39s
Bit rate : 1 628 Kbps
Width : 704 pixels
Height : 384 pixels
Display aspect ratio : 1.85:1
Frame rate : 25.000 fps
Color space : YUV
Chroma subsampling : 4:2:0
Bit depth : 8 bits
Scan type : Progressive
Compression mode : Lossy
Bits/(Pixel*Frame) : 0.241
Stream size : 508 MiB (92%)
Writing library : XviD 1.2.1 (UTC 2008-12-04)
Audio
ID : 1
Format : MPEG Audio
Format version : Version 1
Format profile : Layer 3
Mode : Joint stereo
Mode extension : MS Stereo
Codec ID : 55
Codec ID/Hint : MP3
Duration : 43mn 39s
Bit rate mode : Constant
Bit rate : 128 Kbps
Channel(s) : 2 channels
Sampling rate : 48.0 KHz
Compression mode : Lossy
Stream size : 40.0 MiB (7%)
Alignment : Aligned on interleaves
Interleave, duration : 40 ms (1.00 video frame)
Interleave, preload duration : 504 ms
Writing library : LAME3.98r
Encoding settings : -m j -V 4 -q 2 -lowpass 17 -b 128

Скриншоты

[Цитировать]



Показать сообщения:    

Текущее время: 08-Дек 19:09

Часовой пояс: UTC + 3


Вы не можете начинать темы
Вы не можете отвечать на сообщения
Вы не можете редактировать свои сообщения
Вы не можете удалять свои сообщения
Вы не можете голосовать в опросах
Вы не можете прикреплять файлы к сообщениям
Вы не можете скачивать файлы

!ВНИМАНИЕ!
Сайт не предоставляет электронные версии произведений, а занимается лишь коллекционированием и каталогизацией ссылок, присылаемых и публикуемых на форуме нашими читателями. Если вы являетесь правообладателем какого-либо представленного материала и не желаете, чтобы ссылка на него находилась в нашем каталоге, свяжитесь с нами, и мы незамедлительно удалим ее. Файлы для обмена на трекере предоставлены пользователями сайта, и администрация не несет ответственности за их содержание. Просьба не заливать файлы, защищенные авторскими правами, а также файлы нелегального содержания!