[ Сегодня идет свободное скачивание без начисления Download ]


Статистика раздачи
Нет
 
   
 
Top  
 
 
Бесценная любовь
Год выпуска: 2013
Производство: Парк Синема
Жанр: Мелодрама
Продолжительность: ~0:44:00 серия
Субтитры: Украинские (вшитые)
Режиссёр: Игорь Ройзман
В ролях: Юрий Колокольников, Ольга Смирнова (III), Анастасия Задорожная, Артём Осипов, Валерий Афанасьев, Дарья Чаруша, Владимир Капустин (II), Александра Булычёва
Описание: Два друга-авантюриста Илья и Юрий промышляют тем, что разводят людей на деньги. Оба друга полюбили одну девушку Машу. Но Маша любит Илью. И собирается выйти за него замуж. Юрий не может простить другу, что тот увел у него девушку…
[kp]738442[/kp]

Качество: DVB
Формат: MPEG
Видео кодек: MPEG2
Аудио кодек: MPEG1
Видео: MPEG2 Video 768х576 @ 720x576 (4:3) 25.00fps ~4462 Kbps (0.32 bit/pixel)
Аудио: MPEG Audio 48000Hz 1 channels 192 Кбит/сек
Сторонней рекламы нет!

Скриншоты



MediaInfo

ОбщееПолное имя : I:\СЕРИАЛЫ\Бесценная любовь DVB\Бесценная любовь 01_серия_DVB_by_Серый1779.mpgФормат : MPEG-PSРазмер файла : 1,50 ГбайтПродолжительность : 45 м.Общий поток : 4748 Кбит/сек
ВидеоИдентификатор : 224 (0xE0)Формат : MPEG VideoВерсия формата : Version 2Профиль формата : Main@MainПараметр BVOP формата : ДаПараметр матрицы формата : По умолчаниюПродолжительность : 45 м.Вид битрейта : ПеременныйБитрейт : 4461 Кбит/секНоминальный битрейт : 15,0 Мбит/секШирина : 720 пикс.Высота : 576 пикс.Соотношение сторон : 4:3Частота кадров : 25,000 кадр/секСтандарт вещания : PALЦветовое пространство : YUVПодвыборка цветности : 4:2:0Битовая глубина : 8 битТип развёртки : ЧересстрочнаяПорядок развёртки : Верхнее поле первоеМетод сжатия : С потерямиБит/(Пиксели*Кадры) : 0.430Размер потока : 1,41 Гбайт (94%)
АудиоИдентификатор : 192 (0xC0)Формат : MPEG AudioВерсия формата : Version 1Профиль формата : Layer 2Продолжительность : 45 м.Вид битрейта : ПостоянныйБитрейт : 192 Кбит/секКаналы : 1 каналЧастота : 48,0 КГцМетод сжатия : С потерямиРазмер потока : 62,2 Мбайт (4%)

ВНИМАНИЕ!!!

Внимание! Раздача ведётся путём добавления новых серий; при каждом добавлении создётся новый торрент. Чтобы начать докачку новой серии, пользователям необходимо сделать следующее:
(1) остановить скачивание,
(2) удалить старый торрент у себя из клиента (старые серии удалять не надо),
(3) скачать новый торрент и запустить его у себя в клиенте вместо старого, при этом указать клиенту путь в старую папку куда и должно происходить скачивание новых серий.
Ваш клиент при этом должен произвести хеширование (проверку) старой папки (если не производит сам - помогите ему сделать это), и будет докачивать только те серии которых у вас ещё нет. Старые серии при этом не удаляются, а продолжают раздаваться!
Eсли вы уже удалили старые серии, то предотвратить повторную закачку старых серий можно, отжав галочку в соответсвующих местах при запуске нового торрента. По возможности, желательно не удалять старые серии как можно дольше чтобы релизёр не столько продолжал раздавать старые серии, а смог сконцентрироваться на новых.
ВНИМАНИЕ! ТОРРЕНТ ПЕРЕЗАЛИТ! ДОБАВЛЕНА 2-ая -4-ая СЕРИИ!

Скриншоты

[Цитировать]



Показать сообщения:    

Текущее время: 10-Дек 21:37

Часовой пояс: UTC + 3


Вы не можете начинать темы
Вы не можете отвечать на сообщения
Вы не можете редактировать свои сообщения
Вы не можете удалять свои сообщения
Вы не можете голосовать в опросах
Вы не можете прикреплять файлы к сообщениям
Вы не можете скачивать файлы

!ВНИМАНИЕ!
Сайт не предоставляет электронные версии произведений, а занимается лишь коллекционированием и каталогизацией ссылок, присылаемых и публикуемых на форуме нашими читателями. Если вы являетесь правообладателем какого-либо представленного материала и не желаете, чтобы ссылка на него находилась в нашем каталоге, свяжитесь с нами, и мы незамедлительно удалим ее. Файлы для обмена на трекере предоставлены пользователями сайта, и администрация не несет ответственности за их содержание. Просьба не заливать файлы, защищенные авторскими правами, а также файлы нелегального содержания!