[ Сегодня идет свободное скачивание без начисления Download ]


Статистика раздачи
Нет
 
   
 
Top  
 
 
-Форсаж 4 (Расширенная версия) / Fast & Furious (Extended Cut) (2009) DVDRip- Русское название: Форсаж 4 (Расширенная версия)
Оригинальное название: Fast & Furious (Extended Cut)
Год выпуска: 2009
Жанр: Боевик, Криминал, Триллер
Описание фильма:
Когда кривая дорожка заставляет скрывающегося от правосудия Дома Торетто вернуться в Лос-Анджелес, вражда с агентом Брайаном О’Коннером вспыхивает с новой силой. Но у парочки обнаруживается общий противник, и Дому с Брайаном приходится заключить перемирие в надежде одержать над ним победу. Грабя конвои, роя подкопы и пересекая границы, они приходят к идеальной форме отмщения — педали газа, вдавленной до упора.
Режиссер: Джастин Лин
Актеры: Вин Дизель, Пол Уокер, Джордана Брюстер, Мишель Родригес, Джон Ортиз, Лас Алонсо, Гал Гадот, Джек Конли, Ши Уигхэм, Лиза Лапира
Продолжительность: 01:58:57
Перевод: Дублированный, со вставками одноголосого на расширенные места

Дата мировой премьеры: 12.03.2009
Дата российской премьеры: 09.04.2009
Дата выхода DVD релиза: 05.05.2009
Видеокодек: DivX 5
Битрейт видео: ~1599 kbps avg
Размер кадра: 720x304
Качество видео: DVDRip
Аудио #1: 44.100 kHz, MPEG Layer 3, 2 ch, 128.00 kbps avg
Профессиональный (полное дублирование со вставками любительского одноголосого на расширенные места)
Аудио #2: 48 kHz, AC3 Dolby Digital, 2/0 (L,R) ch, 192 kbps
Профессиональный (полное дублирование без перевода на расширенные места)

Extended Cut

Расширенная версия была получена путем врезания удаленных и расширенных сцен на свои места.
Добавленные сцены не отличаются по качеству видео от самого фильма.
Добавлена короткометражка (общей продолжительностью ~18 минут).
Озвучена японская речь.

Media Info

Общее
Полное имя : H:\торренты на раздаче\Форсаж - 4 [расширенная версия].avi
Формат : AVI
Формат/Информация : Audio Video Interleave
Размер файла : 1,61 Гбайт
Продолжительность : 1 ч. 58 м.
Общий поток : 1937 Кбит/сек
Программа кодирования : VirtualDubMod 1.5.10.2 (build 2540/release)
Библиотека кодирования : VirtualDubMod build 2540/release
Видео
Идентификатор : 0
Формат : MPEG-4 Visual
Параметр BVOP формата : 1
Параметр QPel формата : Нет
Параметр GMC формата : Без точки перехода
Параметр матрицы формата : Default (H.263)
Режим смешивания : Сжатый битовый поток
Идентификатор кодека : DX50
Идентификатор кодека/Подсказка : DivX 5
Продолжительность : 1 ч. 58 м.
Битрейт : 1600 Кбит/сек
Ширина : 720 пикселей
Высота : 304 пикселя
Соотношение сторон : 2,35:1
Частота кадров : 29,970 кадров/сек
Цветовое пространство : YUV
Субдискретизация насыщенности : 4:2:0
Битовая глубина : 8 бит
Тип развёртки : Прогрессивная
Метод сжатия : С потерями
Бит/(Пиксели*Кадры) : 0.244
Размер потока : 1,33 Гбайт (83%)
Библиотека кодирования : DivX 6.8.5 (UTC 2009-08-20)
Аудио #1
Идентификатор : 1
Формат : MPEG Audio
Версия формата : Version 1
Профиль формата : Layer 3
Режим : Joint stereo
Расширение режима : MS Stereo
Идентификатор кодека : 55
Идентификатор кодека/Подсказка : MP3
Продолжительность : 1 ч. 58 м.
Вид битрейта : Постоянный
Битрейт : 128 Кбит/сек
Каналы : 2 канала
Частота : 44,1 КГц
Метод сжатия : С потерями
Размер потока : 109 Мбайт (7%)
Выравнивание : Разделение по промежуткам
Продолжительность промежутка : 33 мс. (1,00 видеокадр)
Время предзагрузки промежутка : 500 мс.
Аудио #2
Идентификатор : 2
Формат : AC-3
Формат/Информация : Audio Coding 3
Расширение режима : CM (complete main)
Параметр Endianness формата : Big
Идентификатор кодека : 2000
Продолжительность : 1 ч. 58 м.
Вид битрейта : Постоянный
Битрейт : 192 Кбит/сек
Каналы : 2 канала
Расположение каналов : Front: L R
Частота : 48,0 КГц
Битовая глубина : 16 бит
Метод сжатия : С потерями
Размер потока : 163 Мбайт (10%)
Выравнивание : Соединение по промежуткам
Продолжительность промежутка : 33 мс. (1,00 видеокадр)
Время предзагрузки промежутка : 512 мс.
Скриншоты:
Время раздачи: по возможности 24/7

[Цитировать]



Показать сообщения:    

Текущее время: 09-Дек 04:56

Часовой пояс: UTC + 3


Вы не можете начинать темы
Вы не можете отвечать на сообщения
Вы не можете редактировать свои сообщения
Вы не можете удалять свои сообщения
Вы не можете голосовать в опросах
Вы не можете прикреплять файлы к сообщениям
Вы не можете скачивать файлы

!ВНИМАНИЕ!
Сайт не предоставляет электронные версии произведений, а занимается лишь коллекционированием и каталогизацией ссылок, присылаемых и публикуемых на форуме нашими читателями. Если вы являетесь правообладателем какого-либо представленного материала и не желаете, чтобы ссылка на него находилась в нашем каталоге, свяжитесь с нами, и мы незамедлительно удалим ее. Файлы для обмена на трекере предоставлены пользователями сайта, и администрация не несет ответственности за их содержание. Просьба не заливать файлы, защищенные авторскими правами, а также файлы нелегального содержания!