[ Сегодня идет свободное скачивание без начисления Download ]


Статистика раздачи
Нет
 
   
 
Top  
 
 
-Крепкий орешек: Хороший день, чтобы умереть / A Good Day to Die Hard (2013) BDRemux-«Яблоко от яблони»- Русское название: Крепкий орешек: Хороший день, чтобы умереть
Оригинальное название: A Good Day to Die Hard
Год выпуска: 2013
Производство: США / Dune Entertainment, Ingenious Film Partners, Origo Film Group
Жанр: Боевик, Триллер, Криминал
Перевод: Дублированный
Субтитры: Вшитые отключаемые
Язык субтитров: Русские, Украинские, Английские
Дата мировой премьеры: 7 февраля 2013
Дата российской премьеры: 14 февраля 2013, «Двадцатый Век Фокс СНГ»
Дата выхода DVD релиза: 6 июня 2013, «Двадцатый Век Фокс СНГ»
Режиссер: Джон Мур
Продюсер: Вик Годфри, Алекс Янг, Стивен Дж. Идс
Актеры: Брюс Уиллис, Джай Кортни, Себастьян Кох, Юлия Снигирь, Радивойе Буквич, Сергей Колесников, Мэри Элизабет Уинстэд, Коул Хаузер, Амори Ноласко, Роман Лукнар
Описание фильма:
Джон МакКлейн прибывает в Москву, чтобы вызволить из тюрьмы своего непредсказуемого сына, но холодная голова и железные мускулы вязнут в паутине российской действительности. Дело, в которое влип МакКлейн-младший, оказывается настолько «опасной трясиной», что отцу и сыну, чтобы выжить и в очередной раз спасти мир, приходится объединить свои усилия, забыв прежние, казалось бы, непреодолимые разногласия.

Продолжительность: 01:37:39
Качество видео: BDRemux
Видеокодек: MPEG-4 AVC/H.264
Битрейт видео: ~22,9 mb/s
Размер кадра: 1920x1080
Аудио 1: Русский (AC3, 6 ch, 384 Кбит/с),
Аудио 2: Украинский (AC3, 2 ch, 192 Кбит/с),
Аудио 3: Английский (DTS-HD МА, 8 ch, 5744 Кбит/с)

MediaInfo

Формат : Matroska
Версия формата : Version 4 / Version 2
Размер файла : 19,9 Гбайт
Продолжительность : 1 ч. 37 м.
Режим общего битрейта : Переменный
Общий поток : 29,1 Мбит/сек
Название фильма : Крепкий орешек: Хороший день, чтобы умереть (Театральная версия) / A Good Day to Die Hard (Theatrical Cut) (NNM-CLUB)
Дата кодирования : UTC 2013-05-23 14:31:18
Программа кодирования : mkvmerge v6.1.0 ('Old Devil') built on Mar 4 2013 09:10:42
Библиотека кодирования : libebml v1.3.0 + libmatroska v1.4.0
Видео
Идентификатор : 1
Формат : AVC
Формат/Информация : Advanced Video Codec
Профиль формата : [email protected]
Параметр CABAC формата : Да
Параметр ReFrames формата : 4 кадра
Идентификатор кодека : V_MPEG4/ISO/AVC
Продолжительность : 1 ч. 37 м.
Вид битрейта : Переменный
Максимальный битрейт : 34,0 Мбит/сек
Ширина : 1920 пикселей
Высота : 1080 пикселей
Соотношение сторон : 16:9
Режим частоты кадров : Постоянный
Частота кадров : 23,976 кадра/сек
Цветовое пространство : YUV
Субдискретизация насыщенности : 4:2:0
Битовая глубина : 8 бит
Тип развёртки : Прогрессивная
Язык : English
Default : Да
Forced : Да
Аудио #1
Идентификатор : 2
Формат : AC-3
Формат/Информация : Audio Coding 3
Расширение режима : CM (complete main)
Параметр Endianness формата : Big
Идентификатор кодека : A_AC3
Продолжительность : 1 ч. 37 м.
Вид битрейта : Постоянный
Битрейт : 384 Кбит/сек
Каналы : 6 каналов
Расположение каналов : Front: L C R, Side: L R, LFE
Частота : 48,0 КГц
Битовая глубина : 16 бит
Метод сжатия : С потерями
Размер потока : 268 Мбайт (1%)
Язык : Russian
Default : Да
Forced : Да
Аудио #2
Идентификатор : 3
Формат : AC-3
Формат/Информация : Audio Coding 3
Расширение режима : CM (complete main)
Параметр Endianness формата : Big
Идентификатор кодека : A_AC3
Продолжительность : 1 ч. 37 м.
Вид битрейта : Постоянный
Битрейт : 192 Кбит/сек
Каналы : 2 канала
Расположение каналов : Front: L R
Частота : 48,0 КГц
Битовая глубина : 16 бит
Метод сжатия : С потерями
Размер потока : 134 Мбайт (1%)
Язык : Ukrainian
Default : Нет
Forced : Нет
Аудио #3
Идентификатор : 4
Формат : DTS
Формат/Информация : Digital Theater Systems
Профиль формата : MA / Core
Режим : 16
Параметр Endianness формата : Big
Идентификатор кодека : A_DTS
Продолжительность : 1 ч. 37 м.
Вид битрейта : Переменный
Битрейт : Неизвестно / 1509 Кбит/сек
Каналы : 8 каналов / 6 каналов
Расположение каналов : Front: L C R, Side: L R, Back: L R, LFE / Front: L C R, Side: L R, LFE
Частота : 48,0 КГц
Битовая глубина : 24 бит
Метод сжатия : Без потерь / Lossy
Язык : English
Default : Нет
Forced : Нет
Текст #1
Идентификатор : 5
Формат : UTF-8
Идентификатор кодека : S_TEXT/UTF8
Идентификатор кодека/Информация : UTF-8 Plain Text
Язык : Russian
Default : Нет
Forced : Нет
Текст #2
Идентификатор : 6
Формат : UTF-8
Идентификатор кодека : S_TEXT/UTF8
Идентификатор кодека/Информация : UTF-8 Plain Text
Язык : Ukrainian
Default : Нет
Forced : Нет
Текст #3
Идентификатор : 7
Формат : UTF-8
Идентификатор кодека : S_TEXT/UTF8
Идентификатор кодека/Информация : UTF-8 Plain Text
Язык : English
Default : Нет
Forced : Нет
Меню
00:00:00.000 : :Chapter 01
00:02:45.999 : :Chapter 02
00:05:02.135 : :Chapter 03
00:09:48.796 : :Chapter 04
00:12:26.453 : :Chapter 05
00:15:39.229 : :Chapter 06
00:18:16.678 : :Chapter 07
00:21:40.507 : :Chapter 08
00:26:55.780 : :Chapter 09
00:30:55.061 : :Chapter 10
00:34:32.111 : :Chapter 11
00:38:19.839 : :Chapter 12
00:40:26.507 : :Chapter 13
00:44:10.606 : :Chapter 14
00:48:21.189 : :Chapter 15
00:51:11.860 : :Chapter 16
00:54:40.318 : :Chapter 17
00:59:21.391 : :Chapter 18
01:01:20.635 : :Chapter 19
01:06:17.598 : :Chapter 20
01:09:40.591 : :Chapter 21
01:14:14.950 : :Chapter 22
01:15:40.202 : :Chapter 23
01:19:28.013 : :Chapter 24
01:21:37.892 : :Chapter 25
01:23:25.457 : :Chapter 26
01:27:57.772 : :Chapter 27
01:31:53.924 : :Chapter 28
Сэмпл: СкачатьСкриншоты:
Время раздачи: Время раздачи с 15:00 - 04:00 по МСК

[Цитировать]

Топик был перенесен из форума Новинки кинопроката (HD Video) в форум Зарубежное кино (HD Video)
Bootch



Показать сообщения:    

Текущее время: 06-Дек 11:09

Часовой пояс: UTC + 3


Вы не можете начинать темы
Вы не можете отвечать на сообщения
Вы не можете редактировать свои сообщения
Вы не можете удалять свои сообщения
Вы не можете голосовать в опросах
Вы не можете прикреплять файлы к сообщениям
Вы не можете скачивать файлы

!ВНИМАНИЕ!
Сайт не предоставляет электронные версии произведений, а занимается лишь коллекционированием и каталогизацией ссылок, присылаемых и публикуемых на форуме нашими читателями. Если вы являетесь правообладателем какого-либо представленного материала и не желаете, чтобы ссылка на него находилась в нашем каталоге, свяжитесь с нами, и мы незамедлительно удалим ее. Файлы для обмена на трекере предоставлены пользователями сайта, и администрация не несет ответственности за их содержание. Просьба не заливать файлы, защищенные авторскими правами, а также файлы нелегального содержания!