[ Сегодня идет свободное скачивание без начисления Download ]


Статистика раздачи
Нет
 
   
 
Top  
 
 
-Квартет / Quartet (2012) HDRip- Русское название: Квартет
Оригинальное название: Quartet
Год выпуска: 2012
Жанр: Драма, Комедия
Производство: Великобритания / BBC Films, DCM Productions, Finola Dwyer Productions, Headline Pictures
Описание фильма:
Овации, цветы и поклонники остались в прошлом, но бодрые старички из Бичем-Хаус, дома ветеранов британской оперной сцены, не намерены сдаваться! Каждый год в день рождения Верди они устраивают гала-концерт. «Гвоздем программы» на этот раз должна стать новая постоялица — бывшая прима и настоящая стерва Джин. Будет ли ее воссоединение с давними партнерами успешным? Получится ли у артистов отрешиться от былых амбиций и прошлых обид и, может, даже воскресить забытую любовь?
Режиссер: Дастин Хоффман
Актеры: Мэгги Смит, Том Кортни, Билли Коннолли, Полин Коллинз, Майкл Гэмбон, Шеридан Смит, Эндрю Сакс, Гвинет Джонс, Тревор Пикок, Дэвид Райалл
Продолжительность: 01:38:17
Перевод: Многоголосый закадровый (лицензия)
Релиз группа:

Возраст:
Дата мировой премьеры: 9 сентября 2012
Дата российской премьеры: 28 февраля 2013, «Вольга»
Дата выхода DVD релиза: 23 мая 2013, «Вольга»
Видеокодек: Xvid
Битрейт видео: ~1665 kb/s
Размер кадра: 720x304
Качество видео: HDRip
Аудиокодек: AC3 6 ch
Битрейт аудио: 448 kb/s

MediaInfo

Формат : AVI
Формат/Информация : Audio Video Interleave
Размер файла : 1,46 Гбайт
Продолжительность : 1 ч. 38 м.
Общий поток : 2122 Кбит/сек
Жанр : Comedy | Drama
Программа кодирования : VirtualDubMod 1.5.10.2 (build 2540/release)
Формат оригинала/Имя : Movie
Видео
Идентификатор : 0
Формат : MPEG-4 Visual
Профиль формата : Advanced Simple@L5
Параметр BVOP формата : 1
Параметр QPel формата : Нет
Параметр GMC формата : Без точки перехода
Параметр матрицы формата : Выборочная
Идентификатор кодека : XVID
Идентификатор кодека/Подсказка : XviD
Продолжительность : 1 ч. 38 м.
Битрейт : 1665 Кбит/сек
Ширина : 720 пикселей
Высота : 304 пикселя
Соотношение сторон : 2,35:1
Частота кадров : 23,976 кадра/сек
Цветовое пространство : YUV
Субдискретизация насыщенности : 4:2:0
Битовая глубина : 8 бит
Тип развёртки : Прогрессивная
Метод сжатия : С потерями
Бит/(Пиксели*Кадры) : 0.317
Размер потока : 1,14 Гбайт (78%)
Библиотека кодирования : XviD 1.2.1 (UTC 2008-12-04)
Аудио
Идентификатор : 1
Формат : AC-3
Формат/Информация : Audio Coding 3
Расширение режима : CM (complete main)
Параметр Endianness формата : Big
Идентификатор кодека : 2000
Продолжительность : 1 ч. 38 м.
Вид битрейта : Постоянный
Битрейт : 448 Кбит/сек
Каналы : 6 каналов
Расположение каналов : Front: L C R, Side: L R, LFE
Частота : 48,0 КГц
Битовая глубина : 16 бит
Метод сжатия : С потерями
Размер потока : 315 Мбайт (21%)
Выравнивание : Разделение по промежуткам
Продолжительность промежутка : 42 мс. (1,00 видеокадр)
Время предзагрузки промежутка : 500 мс.
Скриншоты:
Время раздачи: с 08:00 до 23:00 до первых 10-ти скачавших, далее по возможности

[Цитировать]



Показать сообщения:    

Текущее время: 03-Дек 01:13

Часовой пояс: UTC + 3


Вы не можете начинать темы
Вы не можете отвечать на сообщения
Вы не можете редактировать свои сообщения
Вы не можете удалять свои сообщения
Вы не можете голосовать в опросах
Вы не можете прикреплять файлы к сообщениям
Вы не можете скачивать файлы

!ВНИМАНИЕ!
Сайт не предоставляет электронные версии произведений, а занимается лишь коллекционированием и каталогизацией ссылок, присылаемых и публикуемых на форуме нашими читателями. Если вы являетесь правообладателем какого-либо представленного материала и не желаете, чтобы ссылка на него находилась в нашем каталоге, свяжитесь с нами, и мы незамедлительно удалим ее. Файлы для обмена на трекере предоставлены пользователями сайта, и администрация не несет ответственности за их содержание. Просьба не заливать файлы, защищенные авторскими правами, а также файлы нелегального содержания!