[ Сегодня идет свободное скачивание без начисления Download ]


Статистика раздачи
Нет
 
   
 
Top  
 
 
-Другая жизнь женщины / La vie d'une autre (2012) HDRip- Русское название: Другая жизнь женщины
Оригинальное название: La vie d'une autre
Год выпуска: 2012
Производство: Франция, Люксембург, Бельгия
Жанр: Детектив, Драма, Комедия
Описание фильма:
Мари исполнилось 40. Но странный эффект: однажды утром она проснулась с ощущением, что десяти последних лет её жизни как не бывало. А та любовь, которая на самом деле уже подходит к концу — до развода 4 дня — еще только начинается. Можно ли вернуть прошлое за 4 дня и что такое ты, прежняя, застенчивая провинциалка в роли преуспевающей бизнес-леди?
Режиссер: Сильви Тестю
Актеры: Жюльет Бинош, Матьё Кассовиц, Ор Атика, Даниель Лебрюн, Вернон Добчефф, Ив Дашари-Ле Беон, Франсуа Берлеан, Мари-Кристин Адам, Николас Карпентье, Альберт Спайнер
Продолжительность: 01:33:32
Перевод: Многоголосый закадровый, профессиональный (лицензия)

Дата мировой премьеры: 15 февраля 2012
Дата российской премьеры: 10 января 2013, «GP Group»
Дата выхода DVD релиза: 16 мая 2013, «Мистерия Звука»
Видеокодек: Xvid
Битрейт видео: ~1805 kb/s
Размер кадра: 720х304
Качество видео: HDRip
Аудиокодек: AC3 2.0
Битрейт аудио: 192 kb/s

MediaInfo:

Общее
Полное имя : C:Торренты\Другая жизнь женщины.2012.P.HDRip.avi
Формат : AVI
Формат/Информация : Audio Video Interleave
Размер файла : 1,37 Гбайт
Продолжительность : 1 ч. 37 м.
Общий поток : 2006 Кбит/сек
Название фильма : Drugaja.zhizn.zhenshhiny.2012.P.HDRip.
Жанр : Comedy | Drama | Mystery
Программа кодирования : VirtualDubMod 1.5.10.3 (build 2550/release)
Формат оригинала/Имя : Movie
Видео
Идентификатор : 0
Формат : MPEG-4 Visual
Профиль формата : Advanced [email protected]
Параметр BVOP формата : 1
Параметр QPel формата : Нет
Параметр GMC формата : Без точки перехода
Параметр матрицы формата : Выборочная
Идентификатор кодека : XVID
Идентификатор кодека/Подсказка : XviD
Продолжительность : 1 ч. 37 м.
Битрейт : 1805 Кбит/сек
Ширина : 720 пикселей
Высота : 304 пикселя
Соотношение сторон : 2,35:1
Частота кадров : 23,976 кадра/сек
Цветовое пространство : YUV
Субдискретизация насыщенности : 4:2:0
Битовая глубина : 8 бит
Тип развёртки : Прогрессивная
Метод сжатия : С потерями
Бит/(Пиксели*Кадры) : 0.344
Размер потока : 1,23 Гбайт (90%)
Библиотека кодирования : XviD 1.2.1 (UTC 2008-12-04)
Аудио
Идентификатор : 1
Формат : AC-3
Формат/Информация : Audio Coding 3
Расширение режима : CM (complete main)
Параметр Endianness формата : Big
Идентификатор кодека : 2000
Продолжительность : 1 ч. 37 м.
Вид битрейта : Постоянный
Битрейт : 192 Кбит/сек
Каналы : 2 канала
Расположение каналов : Front: L R
Частота : 48,0 КГц
Битовая глубина : 16 бит
Метод сжатия : С потерями
Размер потока : 134 Мбайт (10%)
Выравнивание : Разделение по промежуткам
Продолжительность промежутка : 42 мс. (1,00 видеокадр)
Время предзагрузки промежутка : 500 мс.
Скриншоты: Время раздачи: с 10.00 до 23.00

[Цитировать]



Показать сообщения:    

Текущее время: 05-Дек 01:25

Часовой пояс: UTC + 3


Вы не можете начинать темы
Вы не можете отвечать на сообщения
Вы не можете редактировать свои сообщения
Вы не можете удалять свои сообщения
Вы не можете голосовать в опросах
Вы не можете прикреплять файлы к сообщениям
Вы не можете скачивать файлы

!ВНИМАНИЕ!
Сайт не предоставляет электронные версии произведений, а занимается лишь коллекционированием и каталогизацией ссылок, присылаемых и публикуемых на форуме нашими читателями. Если вы являетесь правообладателем какого-либо представленного материала и не желаете, чтобы ссылка на него находилась в нашем каталоге, свяжитесь с нами, и мы незамедлительно удалим ее. Файлы для обмена на трекере предоставлены пользователями сайта, и администрация не несет ответственности за их содержание. Просьба не заливать файлы, защищенные авторскими правами, а также файлы нелегального содержания!