[ Сегодня идет свободное скачивание без начисления Download ]


Статистика раздачи
Нет
 
   
 
Top  
 
 
-Хранители / Watchmen (2009) BDRemux- Русское название: Хранители
Оригинальное название: Watchmen
Год выпуска: 2009
Жанр: Фантастика, Боевик, Детектив
Описание фильма:
Действие картины разворачивается в параллельной реальности, в Америке 1985 года. В этом мире супергерои стали частью повседневной жизни общества, а Часы Судного Дня, застыв в пяти минутах от полуночи, отсчитывают время до столкновения ведущих мировых держав. После убийства одного из своих прежних коллег Роршах — супергерой, никогда не снимающий маски, — полон решимости свершить суд Линча.
Он начинает расследование заговора, призванного уничтожить или дискредитировать всех супергероев прошлого и настоящего. Он собирает своих соратников — отставной легион борцов с преступностью, но лишь один из них обладает подлинной силой. Постепенно Роршах осознает пугающий масштаб заговора, связанного с общим прошлым героев и сулящего катастрофические последствия в будущем. Они хранят наш покой, но кто охранит нас от Хранителей?
Режиссер: Зак Снайдер
Актеры: Малин Акерман, Билли Крудап, Мэттью Гуд, Джеки Эрл Хейли, Джеффри Дин Морган, Патрик Уилсон, Карла Гуджино, Мэтт Фрюэр, Стивен МакХэтти, Лаура Меннелл
Продолжительность: 03:06:29
Перевод: Дублированный, Многоголосый, Одноголосый
Язык субтитров: Русские (3 вида), Английские (6 видов)
Вид субтитров: Вшитые, отключаемые

Дата мировой премьеры: 23 февраля 2009
Дата российской премьеры: 5 марта 2009, «Централ Партнершип»
Дата выхода DVD релиза: 1 сентября 2009, «Юниверсал Пикчерс Рус»
Видеокодек: MPEG-4 AVC/H.264
Битрейт видео: ~26,6 mb/s
Размер кадра: 1920x1080
Качество видео: BDRemux 1080p
Аудио 1: Русский, DTS-HD MA, 5.1, 3698 kbps 24 bit, 48kHz [core: DTS 1509 kbps 5.1 24 bit] - Дублированный
Аудио 2: Русский, DTS, 1510 Kbps, 6 ch, 24 bit, 48kHz - Многоголосый закадровый (Киномания)
Аудио 3: Русский, DTS, 1520 Kbps, 6 ch, 24 bit, 48kHz - Авторский одноголосый (Ю.Сербин)
Аудио 4: Английский, DTS-HD MA, 5.1, 3833 kbps, 24 bit, 48kHz [core: DTS 1509 kbps 5.1 24 bit] - (Оригинал)
Аудио 5: Английский, AC-3, 192 Kbps, 2.0, 16 bit, 48kHz - (комментарии Зака Снайдера)
Аудио 6: Английский, AC-3, 192 Kbps, 2.0, 16 bit, 48kHz - (комментарии Дэйва Гиббонса)

MediaInfo

Формат : Matroska
Версия формата : Version 4 / Version 2
Размер файла : 50,0 Гбайт
Продолжительность : 3 ч. 6 м.
Режим общего битрейта : Переменный
Общий поток : 38,4 Мбит/сек
Название фильма : Хранители / Watchmen (NNM-CLUB)
Дата кодирования : UTC 2013-05-23 11:19:18
Программа кодирования : mkvmerge v6.1.0 ('Old Devil') built on Mar 4 2013 09:10:42
Библиотека кодирования : libebml v1.3.0 + libmatroska v1.4.0
Видео
Идентификатор : 1
Формат : AVC
Формат/Информация : Advanced Video Codec
Профиль формата : [email protected]
Параметр CABAC формата : Да
Параметр ReFrames формата : 4 кадра
Режим смешивания : Container [email protected]
Идентификатор кодека : V_MPEG4/ISO/AVC
Продолжительность : 3 ч. 6 м.
Вид битрейта : Переменный
Максимальный битрейт : 38,7 Мбит/сек
Ширина : 1920 пикселей
Высота : 1080 пикселей
Соотношение сторон : 16:9
Режим частоты кадров : Постоянный
Частота кадров : 23,976 кадра/сек
Цветовое пространство : YUV
Субдискретизация насыщенности : 4:2:0
Битовая глубина : 8 бит
Тип развёртки : Прогрессивная
Язык : English
Default : Нет
Forced : Нет
Основные цвета : BT.709
Характеристики трансфера : BT.709
Коэффициенты матрицы : BT.709
Аудио #1
Идентификатор : 2
Формат : DTS
Формат/Информация : Digital Theater Systems
Профиль формата : MA / Core
Режим : 16
Параметр Endianness формата : Big
Идентификатор кодека : A_DTS
Продолжительность : 3 ч. 6 м.
Вид битрейта : Переменный
Битрейт : Неизвестно / 1509 Кбит/сек
Каналы : 6 каналов
Расположение каналов : Front: L C R, Side: L R, LFE
Частота : 48,0 КГц
Битовая глубина : 24 бит
Метод сжатия : Без потерь / Lossy
Заголовок : Dub [5.1; DTS-HD MA]
Язык : Russian
Default : Да
Forced : Нет
Аудио #2
Идентификатор : 3
Формат : DTS
Формат/Информация : Digital Theater Systems
Режим : 16
Параметр Endianness формата : Big
Идентификатор кодека : A_DTS
Продолжительность : 3 ч. 6 м.
Вид битрейта : Постоянный
Битрейт : 1510 Кбит/сек
Каналы : 6 каналов
Расположение каналов : Front: L C R, Side: L R, LFE
Частота : 48,0 КГц
Битовая глубина : 24 бит
Метод сжатия : С потерями
Размер потока : 1,97 Гбайт (4%)
Заголовок : MVO (Kinomania) [5.1; DTS]
Язык : Russian
Default : Нет
Forced : Нет
Аудио #3
Идентификатор : 4
Формат : DTS
Формат/Информация : Digital Theater Systems
Режим : 16
Параметр Endianness формата : Big
Идентификатор кодека : A_DTS
Продолжительность : 3 ч. 6 м.
Вид битрейта : Постоянный
Битрейт : 1510 Кбит/сек
Каналы : 6 каналов
Расположение каналов : Front: L C R, Side: L R, LFE
Частота : 48,0 КГц
Битовая глубина : 24 бит
Метод сжатия : С потерями
Размер потока : 1,97 Гбайт (4%)
Заголовок : AVO (Serbin) [5.1; DTS]
Язык : Russian
Default : Нет
Forced : Нет
Аудио #4
Идентификатор : 5
Формат : DTS
Формат/Информация : Digital Theater Systems
Профиль формата : MA / Core
Режим : 16
Параметр Endianness формата : Big
Идентификатор кодека : A_DTS
Продолжительность : 3 ч. 6 м.
Вид битрейта : Переменный
Битрейт : Неизвестно / 1509 Кбит/сек
Каналы : 6 каналов
Расположение каналов : Front: L C R, Side: L R, LFE
Частота : 48,0 КГц
Битовая глубина : 24 бит
Метод сжатия : Без потерь / Lossy
Заголовок : Original [5.1; DTS-HD MA]
Язык : English
Default : Нет
Forced : Нет
Аудио #5
Идентификатор : 6
Формат : AC-3
Формат/Информация : Audio Coding 3
Расширение режима : CM (complete main)
Параметр Endianness формата : Big
Идентификатор кодека : A_AC3
Продолжительность : 3 ч. 6 м.
Вид битрейта : Постоянный
Битрейт : 224 Кбит/сек
Каналы : 2 канала
Расположение каналов : Front: L R
Частота : 48,0 КГц
Битовая глубина : 16 бит
Метод сжатия : С потерями
Размер потока : 299 Мбайт (1%)
Заголовок : Commentary with Zack Snyder [2.0; AC3]
Default : Нет
Forced : Нет
Аудио #6
Идентификатор : 7
Формат : AC-3
Формат/Информация : Audio Coding 3
Расширение режима : CM (complete main)
Параметр Endianness формата : Big
Идентификатор кодека : A_AC3
Продолжительность : 3 ч. 6 м.
Вид битрейта : Постоянный
Битрейт : 224 Кбит/сек
Каналы : 2 канала
Расположение каналов : Front: L R
Частота : 48,0 КГц
Битовая глубина : 16 бит
Метод сжатия : С потерями
Размер потока : 299 Мбайт (1%)
Заголовок : Commentary with Dave Gibbons [2.0; AC3]
Язык : English
Default : Нет
Forced : Нет
Текст #1
Идентификатор : 8
Формат : UTF-8
Идентификатор кодека : S_TEXT/UTF8
Идентификатор кодека/Информация : UTF-8 Plain Text
Заголовок : Notabenoid [SRT]
Язык : Russian
Default : Нет
Forced : Нет
Текст #2
Идентификатор : 9
Формат : UTF-8
Идентификатор кодека : S_TEXT/UTF8
Идентификатор кодека/Информация : UTF-8 Plain Text
Заголовок : Kinomania [SRT]
Язык : Russian
Default : Нет
Forced : Нет
Текст #3
Идентификатор : 10
Формат : UTF-8
Идентификатор кодека : S_TEXT/UTF8
Идентификатор кодека/Информация : UTF-8 Plain Text
Заголовок : Stroev [SRT]
Язык : Russian
Default : Нет
Forced : Нет
Текст #4
Идентификатор : 11
Формат : UTF-8
Идентификатор кодека : S_TEXT/UTF8
Идентификатор кодека/Информация : UTF-8 Plain Text
Заголовок : Original [SRT]
Язык : English
Default : Нет
Forced : Нет
Текст #5
Идентификатор : 12
Формат : UTF-8
Идентификатор кодека : S_TEXT/UTF8
Идентификатор кодека/Информация : UTF-8 Plain Text
Заголовок : Original (SDH) [SRT]
Язык : English
Default : Нет
Forced : Нет
Текст #6
Идентификатор : 13
Формат : PGS
Режим смешивания : zlib
Идентификатор кодека : S_HDMV/PGS
Идентификатор кодека/Информация : The same subtitle format used on BDs/HD-DVDs
Заголовок : Original
Язык : English
Default : Нет
Forced : Нет
Текст #7
Идентификатор : 14
Формат : PGS
Режим смешивания : zlib
Идентификатор кодека : S_HDMV/PGS
Идентификатор кодека/Информация : The same subtitle format used on BDs/HD-DVDs
Заголовок : Original [SDH]
Язык : English
Default : Нет
Forced : Нет
Текст #8
Идентификатор : 15
Формат : PGS
Режим смешивания : zlib
Идентификатор кодека : S_HDMV/PGS
Идентификатор кодека/Информация : The same subtitle format used on BDs/HD-DVDs
Заголовок : Commentary with Zack Snyder
Язык : English
Default : Нет
Forced : Нет
Текст #9
Идентификатор : 16
Формат : PGS
Режим смешивания : zlib
Идентификатор кодека : S_HDMV/PGS
Идентификатор кодека/Информация : The same subtitle format used on BDs/HD-DVDs
Заголовок : Commentary with Dave Gibbons
Язык : English
Default : Нет
Forced : Нет
Меню
00:00:00.000 : en:00:00:00.000
00:05:42.342 : en:00:05:42.342
00:11:16.759 : en:00:11:16.759
00:16:06.966 : en:00:16:06.966
00:19:05.519 : en:00:19:05.519
00:23:48.761 : en:00:23:48.761
00:26:39.473 : en:00:26:39.473
00:31:37.938 : en:00:31:37.938
00:36:26.851 : en:00:36:26.851
00:41:01.417 : en:00:41:01.417
00:44:58.654 : en:00:44:58.654
00:47:27.303 : en:00:47:27.303
00:51:40.556 : en:00:51:40.556
00:56:10.200 : en:00:56:10.200
00:58:18.995 : en:00:58:18.995
01:00:58.905 : en:01:00:58.905
01:04:13.224 : en:01:04:13.224
01:11:22.737 : en:01:11:22.737
01:13:14.223 : en:01:13:14.223
01:16:45.893 : en:01:16:45.893
01:18:47.222 : en:01:18:47.222
01:21:47.528 : en:01:21:47.528
01:26:52.040 : en:01:26:52.040
01:31:17.931 : en:01:31:17.931
01:37:09.449 : en:01:37:09.449
01:41:10.314 : en:01:41:10.314
01:46:57.369 : en:01:46:57.369
01:53:50.657 : en:01:53:50.657
01:57:18.698 : en:01:57:18.698
02:03:03.126 : en:02:03:03.126
02:06:07.268 : en:02:06:07.268
02:10:23.774 : en:02:10:23.774
02:15:18.736 : en:02:15:18.736
02:19:32.030 : en:02:19:32.030
02:22:13.608 : en:02:22:13.608
02:27:10.989 : en:02:27:10.989
02:33:54.892 : en:02:33:54.892
02:36:37.638 : en:02:36:37.638
02:41:03.028 : en:02:41:03.028
02:44:25.856 : en:02:44:25.856
02:47:31.833 : en:02:47:31.833
02:51:02.252 : en:02:51:02.252
02:55:07.080 : en:02:55:07.080
02:59:45.942 : en:02:59:45.942
Скриншоты:
Время раздачи: с 15:00 - 04:00 по МСК

[Цитировать]



Показать сообщения:    

Текущее время: 04-Дек 13:19

Часовой пояс: UTC + 3


Вы не можете начинать темы
Вы не можете отвечать на сообщения
Вы не можете редактировать свои сообщения
Вы не можете удалять свои сообщения
Вы не можете голосовать в опросах
Вы не можете прикреплять файлы к сообщениям
Вы не можете скачивать файлы

!ВНИМАНИЕ!
Сайт не предоставляет электронные версии произведений, а занимается лишь коллекционированием и каталогизацией ссылок, присылаемых и публикуемых на форуме нашими читателями. Если вы являетесь правообладателем какого-либо представленного материала и не желаете, чтобы ссылка на него находилась в нашем каталоге, свяжитесь с нами, и мы незамедлительно удалим ее. Файлы для обмена на трекере предоставлены пользователями сайта, и администрация не несет ответственности за их содержание. Просьба не заливать файлы, защищенные авторскими правами, а также файлы нелегального содержания!